  0
SECTION
  2
HEADER
  9
$ACADVER
  1
AC1015
  9
$ACADMAINTVER
 70
    18
  9
$DWGCODEPAGE
  3
ANSI_1252
  9
$INSBASE
 10
0.0
 20
0.0
 30
0.0
  9
$EXTMIN
 10
0.0
 20
0.0
 30
0.0
  9
$EXTMAX
 10
297.0
 20
210.0
 30
0.0
  9
$LIMMIN
 10
0.0
 20
0.0
  9
$LIMMAX
 10
297.0
 20
210.0
  9
$ORTHOMODE
 70
     0
  9
$REGENMODE
 70
     1
  9
$FILLMODE
 70
     1
  9
$QTEXTMODE
 70
     0
  9
$MIRRTEXT
 70
     0
  9
$LTSCALE
 40
1.0
  9
$ATTMODE
 70
     1
  9
$TEXTSIZE
 40
0.2
  9
$TRACEWID
 40
0.05
  9
$TEXTSTYLE
  7
Standard
  9
$CLAYER
  8
0
  9
$CELTYPE
  6
ByLayer
  9
$CECOLOR
 62
   256
  9
$CELTSCALE
 40
1.0
  9
$DISPSILH
 70
     0
  9
$DIMSCALE
 40
1.0
  9
$DIMASZ
 40
1.799999999999999
  9
$DIMEXO
 40
0.0625
  9
$DIMDLI
 40
0.38
  9
$DIMRND
 40
0.0
  9
$DIMDLE
 40
0.0
  9
$DIMEXE
 40
0.18
  9
$DIMTP
 40
0.0
  9
$DIMTM
 40
0.0
  9
$DIMTXT
 40
0.3499999940395355
  9
$DIMCEN
 40
0.09
  9
$DIMTSZ
 40
0.0
  9
$DIMTOL
 70
     0
  9
$DIMLIM
 70
     0
  9
$DIMTIH
 70
     1
  9
$DIMTOH
 70
     1
  9
$DIMSE1
 70
     0
  9
$DIMSE2
 70
     0
  9
$DIMTAD
 70
     0
  9
$DIMZIN
 70
     0
  9
$DIMBLK
  1

  9
$DIMASO
 70
     1
  9
$DIMSHO
 70
     1
  9
$DIMPOST
  1

  9
$DIMAPOST
  1

  9
$DIMALT
 70
     0
  9
$DIMALTD
 70
     2
  9
$DIMALTF
 40
25.4
  9
$DIMLFAC
 40
1.0
  9
$DIMTOFL
 70
     0
  9
$DIMTVP
 40
0.0
  9
$DIMTIX
 70
     0
  9
$DIMSOXD
 70
     0
  9
$DIMSAH
 70
     0
  9
$DIMBLK1
  1

  9
$DIMBLK2
  1

  9
$DIMSTYLE
  2
Standard
  9
$DIMCLRD
 70
     0
  9
$DIMCLRE
 70
     0
  9
$DIMCLRT
 70
     0
  9
$DIMTFAC
 40
1.0
  9
$DIMGAP
 40
0.09
  9
$DIMJUST
 70
     0
  9
$DIMSD1
 70
     0
  9
$DIMSD2
 70
     0
  9
$DIMTOLJ
 70
     1
  9
$DIMTZIN
 70
     0
  9
$DIMALTZ
 70
     0
  9
$DIMALTTZ
 70
     0
  9
$DIMUPT
 70
     0
  9
$DIMDEC
 70
     4
  9
$DIMTDEC
 70
     4
  9
$DIMALTU
 70
     2
  9
$DIMALTTD
 70
     2
  9
$DIMTXSTY
  7
Standard
  9
$DIMAUNIT
 70
     0
  9
$DIMADEC
 70
     0
  9
$DIMALTRND
 40
0.0
  9
$DIMAZIN
 70
     0
  9
$DIMDSEP
 70
    46
  9
$DIMATFIT
 70
     3
  9
$DIMFRAC
 70
     0
  9
$DIMLDRBLK
  1

  9
$DIMLUNIT
 70
     2
  9
$DIMLWD
 70
    -2
  9
$DIMLWE
 70
    -2
  9
$DIMTMOVE
 70
     0
  9
$LUNITS
 70
     2
  9
$LUPREC
 70
     4
  9
$SKETCHINC
 40
0.1
  9
$FILLETRAD
 40
0.0
  9
$AUNITS
 70
     0
  9
$AUPREC
 70
     0
  9
$MENU
  1
.
  9
$ELEVATION
 40
0.0
  9
$PELEVATION
 40
0.0
  9
$THICKNESS
 40
0.0
  9
$LIMCHECK
 70
     0
  9
$CHAMFERA
 40
0.0
  9
$CHAMFERB
 40
0.0
  9
$CHAMFERC
 40
0.0
  9
$CHAMFERD
 40
0.0
  9
$SKPOLY
 70
     0
  9
$TDCREATE
 40
2454085.378247246
  9
$TDUCREATE
 40
2454085.336580579
  9
$TDUPDATE
 40
2454085.378247246
  9
$TDUUPDATE
 40
2454085.336580579
  9
$TDINDWG
 40
0.0001081481
  9
$TDUSRTIMER
 40
0.0001081481
  9
$USRTIMER
 70
     1
  9
$ANGBASE
 50
0.0
  9
$ANGDIR
 70
     0
  9
$PDMODE
 70
     0
  9
$PDSIZE
 40
0.0
  9
$PLINEWID
 40
0.0
  9
$SPLFRAME
 70
     0
  9
$SPLINETYPE
 70
     6
  9
$SPLINESEGS
 70
     8
  9
$HANDSEED
  5
912
  9
$SURFTAB1
 70
     6
  9
$SURFTAB2
 70
     6
  9
$SURFTYPE
 70
     6
  9
$SURFU
 70
     6
  9
$SURFV
 70
     6
  9
$UCSBASE
  2

  9
$UCSNAME
  2

  9
$UCSORG
 10
0.0
 20
0.0
 30
0.0
  9
$UCSXDIR
 10
1.0
 20
0.0
 30
0.0
  9
$UCSYDIR
 10
0.0
 20
1.0
 30
0.0
  9
$UCSORTHOREF
  2

  9
$UCSORTHOVIEW
 70
     0
  9
$UCSORGTOP
 10
0.0
 20
0.0
 30
0.0
  9
$UCSORGBOTTOM
 10
0.0
 20
0.0
 30
0.0
  9
$UCSORGLEFT
 10
0.0
 20
0.0
 30
0.0
  9
$UCSORGRIGHT
 10
0.0
 20
0.0
 30
0.0
  9
$UCSORGFRONT
 10
0.0
 20
0.0
 30
0.0
  9
$UCSORGBACK
 10
0.0
 20
0.0
 30
0.0
  9
$PUCSBASE
  2

  9
$PUCSNAME
  2

  9
$PUCSORG
 10
0.0
 20
0.0
 30
0.0
  9
$PUCSXDIR
 10
1.0
 20
0.0
 30
0.0
  9
$PUCSYDIR
 10
0.0
 20
1.0
 30
0.0
  9
$PUCSORTHOREF
  2

  9
$PUCSORTHOVIEW
 70
     0
  9
$PUCSORGTOP
 10
0.0
 20
0.0
 30
0.0
  9
$PUCSORGBOTTOM
 10
0.0
 20
0.0
 30
0.0
  9
$PUCSORGLEFT
 10
0.0
 20
0.0
 30
0.0
  9
$PUCSORGRIGHT
 10
0.0
 20
0.0
 30
0.0
  9
$PUCSORGFRONT
 10
0.0
 20
0.0
 30
0.0
  9
$PUCSORGBACK
 10
0.0
 20
0.0
 30
0.0
  9
$USERI1
 70
     0
  9
$USERI2
 70
     0
  9
$USERI3
 70
     0
  9
$USERI4
 70
     0
  9
$USERI5
 70
     0
  9
$USERR1
 40
0.0
  9
$USERR2
 40
0.0
  9
$USERR3
 40
0.0
  9
$USERR4
 40
0.0
  9
$USERR5
 40
0.0
  9
$WORLDVIEW
 70
     1
  9
$SHADEDGE
 70
     3
  9
$SHADEDIF
 70
    70
  9
$TILEMODE
 70
     1
  9
$MAXACTVP
 70
    64
  9
$PINSBASE
 10
0.0
 20
0.0
 30
0.0
  9
$PLIMCHECK
 70
     0
  9
$PEXTMIN
 10
0.0
 20
0.0
 30
0.0
  9
$PEXTMAX
 10
297.0
 20
210.0
 30
0.0
  9
$PLIMMIN
 10
0.0
 20
0.0
  9
$PLIMMAX
 10
297.0
 20
210.0
  9
$UNITMODE
 70
     0
  9
$VISRETAIN
 70
     1
  9
$PLINEGEN
 70
     0
  9
$PSLTSCALE
 70
     1
  9
$TREEDEPTH
 70
  3020
  9
$CMLSTYLE
  2
Standard
  9
$CMLJUST
 70
     0
  9
$CMLSCALE
 40
1.0
  9
$PROXYGRAPHICS
 70
     1
  9
$MEASUREMENT
 70
     1
  9
$CELWEIGHT
370
    -1
  9
$ENDCAPS
280
     0
  9
$JOINSTYLE
280
     0
  9
$LWDISPLAY
290
     0
  9
$INSUNITS
 70
     0
  9
$HYPERLINKBASE
  1

  9
$STYLESHEET
  1

  9
$XEDIT
290
     1
  9
$CEPSNTYPE
380
     0
  9
$PSTYLEMODE
290
     1
  9
$FINGERPRINTGUID
  2
{F2440A60-5A86-4851-8174-5C4E725A727F}
  9
$VERSIONGUID
  2
{F8422C5D-665D-428A-8105-0AFDEBB89EF0}
  9
$EXTNAMES
290
     1
  9
$PSVPSCALE
 40
0.0
  9
$OLESTARTUP
290
     0
  0
ENDSEC
  0
SECTION
  2
CLASSES
  0
CLASS
  1
ACDBDICTIONARYWDFLT
  2
AcDbDictionaryWithDefault
  3
ObjectDBX Classes
 90
        0
280
     0
281
     0
  0
CLASS
  1
MATERIAL
  2
AcDbMaterial
  3
ObjectDBX Classes
 90
     1024
280
     0
281
     0
  0
CLASS
  1
VISUALSTYLE
  2
AcDbVisualStyle
  3
ObjectDBX Classes
 90
     4095
280
     0
281
     0
  0
CLASS
  1
TABLESTYLE
  2
AcDbTableStyle
  3
ObjectDBX Classes
 90
     4095
280
     0
281
     0
  0
CLASS
  1
DICTIONARYVAR
  2
AcDbDictionaryVar
  3
ObjectDBX Classes
 90
        0
280
     0
281
     0
  0
CLASS
  1
ACDBPLACEHOLDER
  2
AcDbPlaceHolder
  3
ObjectDBX Classes
 90
        0
280
     0
281
     0
  0
CLASS
  1
LAYOUT
  2
AcDbLayout
  3
ObjectDBX Classes
 90
        0
280
     0
281
     0
  0
ENDSEC
  0
SECTION
  2
TABLES
  0
TABLE
  2
VPORT
  5
8
330
0
100
AcDbSymbolTable
 70
     1
  0
VPORT
  5
28
330
8
100
AcDbSymbolTableRecord
100
AcDbViewportTableRecord
  2
*Active
 70
     0
 10
0.0
 20
0.0
 11
1.0
 21
1.0
 12
148.5
 22
105.0
 13
0.0
 23
0.0
 14
1.0
 24
1.0
 15
0.0
 25
0.0
 16
0.0
 26
0.0
 36
1.0
 17
0.0
 27
0.0
 37
0.0
 40
210.0
 41
1.414285714285714
 42
50.0
 43
0.0
 44
0.0
 50
0.0
 51
0.0
 71
     0
 72
   100
 73
     1
 74
     1
 75
     0
 76
     0
 77
     0
 78
     0
281
     0
 65
     1
110
0.0
120
0.0
130
0.0
111
1.0
121
0.0
131
0.0
112
0.0
122
1.0
132
0.0
 79
     0
146
0.0
  0
ENDTAB
  0
TABLE
  2
LTYPE
  5
5
330
0
100
AcDbSymbolTable
 70
    59
  0
LTYPE
  5
29
330
5
100
AcDbSymbolTableRecord
100
AcDbLinetypeTableRecord
  2
ByBlock
 70
     0
  3

 72
    65
 73
     0
 40
0.0
  0
LTYPE
  5
2A
330
5
100
AcDbSymbolTableRecord
100
AcDbLinetypeTableRecord
  2
ByLayer
 70
     0
  3

 72
    65
 73
     0
 40
0.0
  0
LTYPE
  5
2B
330
5
100
AcDbSymbolTableRecord
100
AcDbLinetypeTableRecord
  2
Continuous
 70
     0
  3
Solid line
 72
    65
 73
     0
 40
0.0
  0
LTYPE
  5
40
330
5
100
AcDbSymbolTableRecord
100
AcDbLinetypeTableRecord
  2
Section_View_Lines
 70
     0
  3
Section View Lines
 72
    65
 73
     4
 40
0.8406
 49
0.6614
 74
     0
 49
-0.0827
 74
     0
 49
0.0138
 74
     0
 49
-0.0827
 74
     0
  0
LTYPE
  5
41
330
5
100
AcDbSymbolTableRecord
100
AcDbLinetypeTableRecord
  2
CHAIN
 70
     0
  3
Chain ____ _ ____ _ ____ _ ____ _ ____ _ ____
 72
    65
 73
     4
 40
0.3543
 49
0.2362
 74
     0
 49
-0.0295
 74
     0
 49
0.0591
 74
     0
 49
-0.0295
 74
     0
  0
LTYPE
  5
42
330
5
100
AcDbSymbolTableRecord
100
AcDbLinetypeTableRecord
  2
DASH_DOT
 70
     0
  3
Dash dot _._._._._._._._._._._._._._._.
 72
    65
 73
     4
 40
0.37
 49
0.24
 74
     0
 49
-0.06
 74
     0
 49
0.01
 74
     0
 49
-0.06
 74
     0
  0
LTYPE
  5
43
330
5
100
AcDbSymbolTableRecord
100
AcDbLinetypeTableRecord
  2
DASH_DOUBLE_DOT
 70
     0
  3
Dash Double Dot __ __ . __ __ . __ __ . __ _
 72
    65
 73
     6
 40
0.4398
 49
0.24
 74
     0
 49
-0.06
 74
     0
 49
0.0098
 74
     0
 49
-0.06
 74
     0
 49
0.01
 74
     0
 49
-0.06
 74
     0
  0
LTYPE
  5
44
330
5
100
AcDbSymbolTableRecord
100
AcDbLinetypeTableRecord
  2
DASH_TRIPLE_DOT
 70
     0
  3
Dash Triple-Dot _ . . . _ . . . _ . . . _
 72
    65
 73
     8
 40
0.51
 49
0.24
 74
     0
 49
-0.06
 74
     0
 49
0.01
 74
     0
 49
-0.06
 74
     0
 49
0.01
 74
     0
 49
-0.06
 74
     0
 49
0.01
 74
     0
 49
-0.06
 74
     0
  0
LTYPE
  5
45
330
5
100
AcDbSymbolTableRecord
100
AcDbLinetypeTableRecord
  2
DASHED
 70
     0
  3
Dashed __ __ __ __ __ __ __ __ __ __ __ __ __ _
 72
    65
 73
     2
 40
0.2067
 49
0.1654
 74
     0
 49
-0.0413
 74
     0
  0
LTYPE
  5
46
330
5
100
AcDbSymbolTableRecord
100
AcDbLinetypeTableRecord
  2
DASHED_SPACE
 70
     0
  3
Dashed Space _._._._._._._._._._._._._._._.
 72
    65
 73
     2
 40
0.2067
 49
0.1654
 74
     0
 49
-0.0413
 74
     0
  0
LTYPE
  5
47
330
5
100
AcDbSymbolTableRecord
100
AcDbLinetypeTableRecord
  2
DOTTED
 70
     0
  3
Dotted . . . . . . . . . . . . . . . . . . . . 
 72
    65
 73
     2
 40
0.0482
 49
0.0069
 74
     0
 49
-0.0413
 74
     0
  0
LTYPE
  5
48
330
5
100
AcDbSymbolTableRecord
100
AcDbLinetypeTableRecord
  2
DOUBLE_DASH_CHAIN
 70
     0
  3
Double Dash Chain ___ _ _ ___ _ _ ___ _ _ ___ _
 72
    65
 73
     6
 40
1.240299999999999
 49
0.6614
 74
     0
 49
-0.0827
 74
     0
 49
0.1654
 74
     0
 49
-0.0827
 74
     0
 49
0.1654
 74
     0
 49
-0.0827
 74
     0
  0
LTYPE
  5
49
330
5
100
AcDbSymbolTableRecord
100
AcDbLinetypeTableRecord
  2
DOUBLE_DASH_DOT
 70
     0
  3
Double Dash Dot __ __ . __ __ . __ __ . __ _
 72
    65
 73
     6
 40
0.67
 49
0.24
 74
     0
 49
-0.06
 74
     0
 49
0.24
 74
     0
 49
-0.06
 74
     0
 49
0.01
 74
     0
 49
-0.06
 74
     0
  0
LTYPE
  5
4A
330
5
100
AcDbSymbolTableRecord
100
AcDbLinetypeTableRecord
  2
DOUBLE_DASH_DOUBLE_DOT
 70
     0
  3
Double-dash double-dot _ _ . . _ _ . . _
 72
    65
 73
     8
 40
0.7400000000000001
 49
0.24
 74
     0
 49
-0.06
 74
     0
 49
0.24
 74
     0
 49
-0.06
 74
     0
 49
0.01
 74
     0
 49
-0.06
 74
     0
 49
0.01
 74
     0
 49
-0.06
 74
     0
  0
LTYPE
  5
4B
330
5
100
AcDbSymbolTableRecord
100
AcDbLinetypeTableRecord
  2
DOUBLE_DASH_TRIPLE_DOT
 70
     0
  3
Double Dash Triple Dot __ __ . . . __ __ . . .
 72
    65
 73
    10
 40
0.8100000000000001
 49
0.24
 74
     0
 49
-0.06
 74
     0
 49
0.24
 74
     0
 49
-0.06
 74
     0
 49
0.01
 74
     0
 49
-0.06
 74
     0
 49
0.01
 74
     0
 49
-0.06
 74
     0
 49
0.01
 74
     0
 49
-0.06
 74
     0
  0
LTYPE
  5
4C
330
5
100
AcDbSymbolTableRecord
100
AcDbLinetypeTableRecord
  2
LONG_DASH_DOTTED
 70
     0
  3
Long-Dash Dot ____ . ____ . ____ . ____ . _
 72
    65
 73
     4
 40
0.3001
 49
0.2362
 74
     0
 49
-0.0295
 74
     0
 49
0.0049
 74
     0
 49
-0.0295
 74
     0
  0
LTYPE
  5
4D
330
5
100
AcDbSymbolTableRecord
100
AcDbLinetypeTableRecord
  2
LONG_DASH_DOUBLE_DOT
 70
     0
  3
Long Dash Double Dot ____ . . ____ . . ____ . .
 72
    65
 73
     6
 40
0.3345
 49
0.2362
 74
     0
 49
-0.0295
 74
     0
 49
0.0049
 74
     0
 49
-0.0295
 74
     0
 49
0.0049
 74
     0
 49
-0.0295
 74
     0
  0
LTYPE
  5
4E
330
5
100
AcDbSymbolTableRecord
100
AcDbLinetypeTableRecord
  2
LONG_DASH_TRIPLE_DOT
 70
     0
  3
Long Dash Triple Dot ____ ... ____ ... ____
 72
    65
 73
     8
 40
0.75
 49
0.48
 74
     0
 49
-0.06
 74
     0
 49
0.01
 74
     0
 49
-0.06
 74
     0
 49
0.01
 74
     0
 49
-0.06
 74
     0
 49
0.01
 74
     0
 49
-0.06
 74
     0
  0
LTYPE
  5
4F
330
5
100
AcDbSymbolTableRecord
100
AcDbLinetypeTableRecord
  2
BORDER
 70
     0
  3
Border __ __ . __ __ . __ __ . __ __ . __ __ .
 72
    65
 73
     6
 40
44.45
 49
12.7
 74
     0
 49
-6.349999999999999
 74
     0
 49
12.7
 74
     0
 49
-6.349999999999999
 74
     0
 49
0.0
 74
     0
 49
-6.349999999999999
 74
     0
  0
LTYPE
  5
50
330
5
100
AcDbSymbolTableRecord
100
AcDbLinetypeTableRecord
  2
BORDER2
 70
     0
  3
Border (.5x) __.__.__.__.__.__.__.__.__.__.__.
 72
    65
 73
     6
 40
22.225
 49
6.349999999999999
 74
     0
 49
-3.174999999999999
 74
     0
 49
6.349999999999999
 74
     0
 49
-3.174999999999999
 74
     0
 49
0.0
 74
     0
 49
-3.174999999999999
 74
     0
  0
LTYPE
  5
51
330
5
100
AcDbSymbolTableRecord
100
AcDbLinetypeTableRecord
  2
BORDERX2
 70
     0
  3
Border (2x) ____  ____  .  ____  ____  .  ___
 72
    65
 73
     6
 40
88.9
 49
25.4
 74
     0
 49
-12.7
 74
     0
 49
25.4
 74
     0
 49
-12.7
 74
     0
 49
0.0
 74
     0
 49
-12.7
 74
     0
  0
LTYPE
  5
52
330
5
100
AcDbSymbolTableRecord
100
AcDbLinetypeTableRecord
  2
CENTER
 70
     0
  3
Center ____ _ ____ _ ____ _ ____ _ ____ _ ____
 72
    65
 73
     4
 40
50.8
 49
31.75
 74
     0
 49
-6.349999999999999
 74
     0
 49
6.349999999999999
 74
     0
 49
-6.349999999999999
 74
     0
  0
LTYPE
  5
53
330
5
100
AcDbSymbolTableRecord
100
AcDbLinetypeTableRecord
  2
CENTER2
 70
     0
  3
Center (.5x) ___ _ ___ _ ___ _ ___ _ ___ _ ___
 72
    65
 73
     4
 40
28.575
 49
19.05
 74
     0
 49
-3.174999999999999
 74
     0
 49
3.174999999999999
 74
     0
 49
-3.174999999999999
 74
     0
  0
LTYPE
  5
54
330
5
100
AcDbSymbolTableRecord
100
AcDbLinetypeTableRecord
  2
CENTERX2
 70
     0
  3
Center (2x) ________  __  ________  __  _____
 72
    65
 73
     4
 40
101.6
 49
63.5
 74
     0
 49
-12.7
 74
     0
 49
12.7
 74
     0
 49
-12.7
 74
     0
  0
LTYPE
  5
55
330
5
100
AcDbSymbolTableRecord
100
AcDbLinetypeTableRecord
  2
DASHDOT2
 70
     0
  3
Dash dot (.5x) _._._._._._._._._._._._._._._.
 72
    65
 73
     4
 40
12.7
 49
6.349999999999999
 74
     0
 49
-3.174999999999999
 74
     0
 49
0.0
 74
     0
 49
-3.174999999999999
 74
     0
  0
LTYPE
  5
56
330
5
100
AcDbSymbolTableRecord
100
AcDbLinetypeTableRecord
  2
DASHDOTX2
 70
     0
  3
Dash dot (2x) ____  .  ____  .  ____  .  ___
 72
    65
 73
     4
 40
50.8
 49
25.4
 74
     0
 49
-12.7
 74
     0
 49
0.0
 74
     0
 49
-12.7
 74
     0
  0
LTYPE
  5
57
330
5
100
AcDbSymbolTableRecord
100
AcDbLinetypeTableRecord
  2
DASHED2
 70
     0
  3
Dashed (.5x) _ _ _ _ _ _ _ _ _ _ _ _ _ _ _ _ _
 72
    65
 73
     2
 40
9.524999999999998
 49
6.349999999999999
 74
     0
 49
-3.174999999999999
 74
     0
  0
LTYPE
  5
58
330
5
100
AcDbSymbolTableRecord
100
AcDbLinetypeTableRecord
  2
DASHEDX2
 70
     0
  3
Dashed (2x) ____  ____  ____  ____  ____  ___
 72
    65
 73
     2
 40
38.1
 49
25.4
 74
     0
 49
-12.7
 74
     0
  0
LTYPE
  5
59
330
5
100
AcDbSymbolTableRecord
100
AcDbLinetypeTableRecord
  2
DIVIDE
 70
     0
  3
Divide ____ . . ____ . . ____ . . ____ . . ____
 72
    65
 73
     6
 40
31.75
 49
12.7
 74
     0
 49
-6.349999999999999
 74
     0
 49
0.0
 74
     0
 49
-6.349999999999999
 74
     0
 49
0.0
 74
     0
 49
-6.349999999999999
 74
     0
  0
LTYPE
  5
5A
330
5
100
AcDbSymbolTableRecord
100
AcDbLinetypeTableRecord
  2
DIVIDE2
 70
     0
  3
Divide (.5x) __..__..__..__..__..__..__..__.._
 72
    65
 73
     6
 40
15.875
 49
6.349999999999999
 74
     0
 49
-3.174999999999999
 74
     0
 49
0.0
 74
     0
 49
-3.174999999999999
 74
     0
 49
0.0
 74
     0
 49
-3.174999999999999
 74
     0
  0
LTYPE
  5
5B
330
5
100
AcDbSymbolTableRecord
100
AcDbLinetypeTableRecord
  2
DIVIDEX2
 70
     0
  3
Divide (2x) ________  .  .  ________  .  .  _
 72
    65
 73
     6
 40
63.49999999999999
 49
25.4
 74
     0
 49
-12.7
 74
     0
 49
0.0
 74
     0
 49
-12.7
 74
     0
 49
0.0
 74
     0
 49
-12.7
 74
     0
  0
LTYPE
  5
5C
330
5
100
AcDbSymbolTableRecord
100
AcDbLinetypeTableRecord
  2
DOT
 70
     0
  3
Dot . . . . . . . . . . . . . . . . . . . . . .
 72
    65
 73
     2
 40
6.349999999999999
 49
0.0
 74
     0
 49
-6.349999999999999
 74
     0
  0
LTYPE
  5
5D
330
5
100
AcDbSymbolTableRecord
100
AcDbLinetypeTableRecord
  2
DOT2
 70
     0
  3
Dot (.5x) .....................................
 72
    65
 73
     2
 40
3.174999999999999
 49
0.0
 74
     0
 49
-3.174999999999999
 74
     0
  0
LTYPE
  5
5E
330
5
100
AcDbSymbolTableRecord
100
AcDbLinetypeTableRecord
  2
DOTX2
 70
     0
  3
Dot (2x) .  .  .  .  .  .  .  .  .  .  .  .  . 
 72
    65
 73
     2
 40
12.7
 49
0.0
 74
     0
 49
-12.7
 74
     0
  0
LTYPE
  5
5F
330
5
100
AcDbSymbolTableRecord
100
AcDbLinetypeTableRecord
  2
HIDDEN
 70
     0
  3
Hidden __ __ __ __ __ __ __ __ __ __ __ __ __ _
 72
    65
 73
     2
 40
9.524999999999998
 49
6.349999999999999
 74
     0
 49
-3.174999999999999
 74
     0
  0
LTYPE
  5
60
330
5
100
AcDbSymbolTableRecord
100
AcDbLinetypeTableRecord
  2
HIDDEN2
 70
     0
  3
Hidden (.5x) _ _ _ _ _ _ _ _ _ _ _ _ _ _ _ _ _
 72
    65
 73
     2
 40
4.762499999999999
 49
3.174999999999999
 74
     0
 49
-1.587499999999999
 74
     0
  0
LTYPE
  5
61
330
5
100
AcDbSymbolTableRecord
100
AcDbLinetypeTableRecord
  2
HIDDENX2
 70
     0
  3
Hidden (2x) ____ ____ ____ ____ ____ ____ ____
 72
    65
 73
     2
 40
19.05
 49
12.7
 74
     0
 49
-6.349999999999999
 74
     0
  0
LTYPE
  5
62
330
5
100
AcDbSymbolTableRecord
100
AcDbLinetypeTableRecord
  2
PHANTOM
 70
     0
  3
Phantom ______  __  __  ______  __  __  ______
 72
    65
 73
     6
 40
63.5
 49
31.75
 74
     0
 49
-6.349999999999999
 74
     0
 49
6.349999999999999
 74
     0
 49
-6.349999999999999
 74
     0
 49
6.349999999999999
 74
     0
 49
-6.349999999999999
 74
     0
  0
LTYPE
  5
63
330
5
100
AcDbSymbolTableRecord
100
AcDbLinetypeTableRecord
  2
PHANTOM2
 70
     0
  3
Phantom (.5x) ___ _ _ ___ _ _ ___ _ _ ___ _ _
 72
    65
 73
     6
 40
31.75
 49
15.875
 74
     0
 49
-3.174999999999999
 74
     0
 49
3.174999999999999
 74
     0
 49
-3.174999999999999
 74
     0
 49
3.174999999999999
 74
     0
 49
-3.174999999999999
 74
     0
  0
LTYPE
  5
64
330
5
100
AcDbSymbolTableRecord
100
AcDbLinetypeTableRecord
  2
PHANTOMX2
 70
     0
  3
Phantom (2x) ____________    ____    ____   _
 72
    65
 73
     6
 40
127.0
 49
63.5
 74
     0
 49
-12.7
 74
     0
 49
12.7
 74
     0
 49
-12.7
 74
     0
 49
12.7
 74
     0
 49
-12.7
 74
     0
  0
LTYPE
  5
65
330
5
100
AcDbSymbolTableRecord
100
AcDbLinetypeTableRecord
  2
ACAD_ISO02W100
 70
     0
  3
ISO dash __ __ __ __ __ __ __ __ __ __ __ __ __
 72
    65
 73
     2
 40
15.0
 49
12.0
 74
     0
 49
-3.0
 74
     0
  0
LTYPE
  5
66
330
5
100
AcDbSymbolTableRecord
100
AcDbLinetypeTableRecord
  2
ACAD_ISO03W100
 70
     0
  3
ISO dash space __    __    __    __    __    __
 72
    65
 73
     2
 40
30.0
 49
12.0
 74
     0
 49
-18.0
 74
     0
  0
LTYPE
  5
67
330
5
100
AcDbSymbolTableRecord
100
AcDbLinetypeTableRecord
  2
ACAD_ISO04W100
 70
     0
  3
ISO long-dash dot ____ . ____ . ____ . ____ . _
 72
    65
 73
     4
 40
30.0
 49
24.0
 74
     0
 49
-3.0
 74
     0
 49
0.0
 74
     0
 49
-3.0
 74
     0
  0
LTYPE
  5
68
330
5
100
AcDbSymbolTableRecord
100
AcDbLinetypeTableRecord
  2
ACAD_ISO05W100
 70
     0
  3
ISO long-dash double-dot ____ .. ____ .. ____ .
 72
    65
 73
     6
 40
33.0
 49
24.0
 74
     0
 49
-3.0
 74
     0
 49
0.0
 74
     0
 49
-3.0
 74
     0
 49
0.0
 74
     0
 49
-3.0
 74
     0
  0
LTYPE
  5
69
330
5
100
AcDbSymbolTableRecord
100
AcDbLinetypeTableRecord
  2
ACAD_ISO06W100
 70
     0
  3
ISO long-dash triple-dot ____ ... ____ ... ____
 72
    65
 73
     8
 40
36.0
 49
24.0
 74
     0
 49
-3.0
 74
     0
 49
0.0
 74
     0
 49
-3.0
 74
     0
 49
0.0
 74
     0
 49
-3.0
 74
     0
 49
0.0
 74
     0
 49
-3.0
 74
     0
  0
LTYPE
  5
6A
330
5
100
AcDbSymbolTableRecord
100
AcDbLinetypeTableRecord
  2
ACAD_ISO07W100
 70
     0
  3
ISO dot . . . . . . . . . . . . . . . . . . . .
 72
    65
 73
     2
 40
3.0
 49
0.0
 74
     0
 49
-3.0
 74
     0
  0
LTYPE
  5
6B
330
5
100
AcDbSymbolTableRecord
100
AcDbLinetypeTableRecord
  2
ACAD_ISO08W100
 70
     0
  3
ISO long-dash short-dash ____ __ ____ __ ____ _
 72
    65
 73
     4
 40
36.0
 49
24.0
 74
     0
 49
-3.0
 74
     0
 49
6.0
 74
     0
 49
-3.0
 74
     0
  0
LTYPE
  5
6C
330
5
100
AcDbSymbolTableRecord
100
AcDbLinetypeTableRecord
  2
ACAD_ISO09W100
 70
     0
  3
ISO long-dash double-short-dash ____ __ __ ____
 72
    65
 73
     6
 40
45.0
 49
24.0
 74
     0
 49
-3.0
 74
     0
 49
6.0
 74
     0
 49
-3.0
 74
     0
 49
6.0
 74
     0
 49
-3.0
 74
     0
  0
LTYPE
  5
6D
330
5
100
AcDbSymbolTableRecord
100
AcDbLinetypeTableRecord
  2
ACAD_ISO10W100
 70
     0
  3
ISO dash dot __ . __ . __ . __ . __ . __ . __ .
 72
    65
 73
     4
 40
18.0
 49
12.0
 74
     0
 49
-3.0
 74
     0
 49
0.0
 74
     0
 49
-3.0
 74
     0
  0
LTYPE
  5
6E
330
5
100
AcDbSymbolTableRecord
100
AcDbLinetypeTableRecord
  2
ACAD_ISO11W100
 70
     0
  3
ISO double-dash dot __ __ . __ __ . __ __ . __ 
 72
    65
 73
     6
 40
33.0
 49
12.0
 74
     0
 49
-3.0
 74
     0
 49
12.0
 74
     0
 49
-3.0
 74
     0
 49
0.0
 74
     0
 49
-3.0
 74
     0
  0
LTYPE
  5
6F
330
5
100
AcDbSymbolTableRecord
100
AcDbLinetypeTableRecord
  2
ACAD_ISO12W100
 70
     0
  3
ISO dash double-dot __ . . __ . . __ . . __ . .
 72
    65
 73
     6
 40
21.0
 49
12.0
 74
     0
 49
-3.0
 74
     0
 49
0.0
 74
     0
 49
-3.0
 74
     0
 49
0.0
 74
     0
 49
-3.0
 74
     0
  0
LTYPE
  5
70
330
5
100
AcDbSymbolTableRecord
100
AcDbLinetypeTableRecord
  2
ACAD_ISO13W100
 70
     0
  3
ISO double-dash double-dot __ __ . . __ __ . . 
 72
    65
 73
     8
 40
36.0
 49
12.0
 74
     0
 49
-3.0
 74
     0
 49
12.0
 74
     0
 49
-3.0
 74
     0
 49
0.0
 74
     0
 49
-3.0
 74
     0
 49
0.0
 74
     0
 49
-3.0
 74
     0
  0
LTYPE
  5
71
330
5
100
AcDbSymbolTableRecord
100
AcDbLinetypeTableRecord
  2
ACAD_ISO14W100
 70
     0
  3
ISO dash triple-dot __ . . . __ . . . __ . . . 
 72
    65
 73
     8
 40
24.0
 49
12.0
 74
     0
 49
-3.0
 74
     0
 49
0.0
 74
     0
 49
-3.0
 74
     0
 49
0.0
 74
     0
 49
-3.0
 74
     0
 49
0.0
 74
     0
 49
-3.0
 74
     0
  0
LTYPE
  5
72
330
5
100
AcDbSymbolTableRecord
100
AcDbLinetypeTableRecord
  2
ACAD_ISO15W100
 70
     0
  3
ISO double-dash triple-dot __ __ . . . __ __ . 
 72
    65
 73
    10
 40
39.0
 49
12.0
 74
     0
 49
-3.0
 74
     0
 49
12.0
 74
     0
 49
-3.0
 74
     0
 49
0.0
 74
     0
 49
-3.0
 74
     0
 49
0.0
 74
     0
 49
-3.0
 74
     0
 49
0.0
 74
     0
 49
-3.0
 74
     0
  0
LTYPE
  5
75
330
5
100
AcDbSymbolTableRecord
100
AcDbLinetypeTableRecord
  2
FENCELINE1
 70
     0
  3
Fenceline circle ----0-----0----0-----0----0---
 72
    65
 73
     4
 40
36.83
 49
6.349999999999999
 74
     0
 49
-2.54
 74
     4
 75
   133
340
74
 46
2.54
 50
0.0
 44
-2.54
 45
0.0
 49
-2.54
 74
     0
 49
25.4
 74
     0
  0
LTYPE
  5
76
330
5
100
AcDbSymbolTableRecord
100
AcDbLinetypeTableRecord
  2
FENCELINE2
 70
     0
  3
Fenceline square ----[]-----[]----[]-----[]----
 72
    65
 73
     4
 40
36.83
 49
6.349999999999999
 74
     0
 49
-2.54
 74
     4
 75
   132
340
74
 46
2.54
 50
0.0
 44
-2.54
 45
0.0
 49
-2.54
 74
     0
 49
25.4
 74
     0
  0
LTYPE
  5
77
330
5
100
AcDbSymbolTableRecord
100
AcDbLinetypeTableRecord
  2
TRACKS
 70
     0
  3
Tracks -|-|-|-|-|-|-|-|-|-|-|-|-|-|-|-|-|-|-|-|
 72
    65
 73
     2
 40
7.62
 49
3.81
 74
     4
 75
   130
340
74
 46
6.349999999999999
 50
0.0
 44
0.0
 45
0.0
 49
3.81
 74
     0
  0
LTYPE
  5
78
330
5
100
AcDbSymbolTableRecord
100
AcDbLinetypeTableRecord
  2
BATTING
 70
     0
  3
Batting SSSSSSSSSSSSSSSSSSSSSSSSSSSSSSSSSSSSSSS
 72
    65
 73
     4
 40
10.16254
 49
0.00254
 74
     0
 49
-2.54
 74
     4
 75
   134
340
74
 46
2.54
 50
0.0
 44
-2.54
 45
0.0
 49
-5.08
 74
     4
 75
   134
340
74
 46
2.54
 50
180.0
 44
2.54
 45
0.0
 49
-2.54
 74
     0
  0
LTYPE
  5
79
330
5
100
AcDbSymbolTableRecord
100
AcDbLinetypeTableRecord
  2
HOT_WATER_SUPPLY
 70
     0
  3
Hot water supply ---- HW ---- HW ---- HW ----
 72
    65
 73
     3
 40
22.86
 49
12.7
 74
     0
 49
-5.08
 74
     2
 75
     0
340
26
 46
2.54
 50
0.0
 44
-2.54
 45
-1.27
  9
HW
 49
-5.08
 74
     0
  0
LTYPE
  5
7A
330
5
100
AcDbSymbolTableRecord
100
AcDbLinetypeTableRecord
  2
GAS_LINE
 70
     0
  3
Gas line ----GAS----GAS----GAS----GAS----GAS---
 72
    65
 73
     3
 40
24.13
 49
12.7
 74
     0
 49
-5.08
 74
     2
 75
     0
340
26
 46
2.54
 50
0.0
 44
-2.54
 45
-1.27
  9
GAS
 49
-6.349999999999999
 74
     0
  0
LTYPE
  5
7B
330
5
100
AcDbSymbolTableRecord
100
AcDbLinetypeTableRecord
  2
ZIGZAG
 70
     0
  3
Zig zag /\/\/\/\/\/\/\/\/\/\/\/\/\/\/\/\/\/\/\/
 72
    65
 73
     4
 40
20.32254
 49
0.00254
 74
     0
 49
-5.08
 74
     4
 75
   131
340
74
 46
5.08
 50
0.0
 44
-5.08
 45
0.0
 49
-10.16
 74
     4
 75
   131
340
74
 46
5.08
 50
180.0
 44
5.08
 45
0.0
 49
-5.08
 74
     0
  0
ENDTAB
  0
TABLE
  2
LAYER
  5
2
330
0
100
AcDbSymbolTable
 70
    74
  0
LAYER
  5
25
330
2
100
AcDbSymbolTableRecord
100
AcDbLayerTableRecord
  2
0
 70
     0
 62
     7
  6
Continuous
370
    -3
390
F
  0
LAYER
  5
90
330
2
100
AcDbSymbolTableRecord
100
AcDbLayerTableRecord
  2
Bemaßungen(TC_020513_DIN)
 70
     0
 62
     7
  6
Continuous
370
    25
390
F
  0
LAYER
  5
A2
330
2
100
AcDbSymbolTableRecord
100
AcDbLayerTableRecord
  2
Mittellinie(TC_020513_DIN)
 70
     0
 62
     7
  6
DASH_DOT
370
    25
390
F
  0
LAYER
  5
A4
330
2
100
AcDbSymbolTableRecord
100
AcDbLayerTableRecord
  2
Mittelpunktmarkierung(TC_020513_DIN)
 70
     0
 62
     7
  6
Continuous
370
    25
390
F
  0
LAYER
  5
AD
330
2
100
AcDbSymbolTableRecord
100
AcDbLayerTableRecord
  2
Schraffur
 70
     0
 62
   179
  6
Continuous
370
     9
390
F
  0
LAYER
  5
AF
330
2
100
AcDbSymbolTableRecord
100
AcDbLayerTableRecord
  2
Sichtbare Kanten(TC_020513_DIN)
 70
     0
 62
     7
  6
Continuous
370
    50
390
F
  0
LAYER
  5
B2
330
2
100
AcDbSymbolTableRecord
100
AcDbLayerTableRecord
  2
Skizziergeometrie(ISO)
 70
     0
 62
     7
  6
Continuous
370
    50
390
F
  0
LAYER
  5
B5
330
2
100
AcDbSymbolTableRecord
100
AcDbLayerTableRecord
  2
Skizzierlinie(TC_020513_DIN)
 70
     1
 62
     3
  6
Continuous
370
    18
390
F
  0
LAYER
  5
BA
330
2
100
AcDbSymbolTableRecord
100
AcDbLayerTableRecord
  2
Symbole(ISO)
 70
     0
 62
     7
  6
Continuous
370
    25
390
F
  0
LAYER
  5
393
330
2
100
AcDbSymbolTableRecord
100
AcDbLayerTableRecord
  2
Defpoints
 70
     0
 62
     7
  6
Continuous
290
     0
370
    -3
390
F
  0
ENDTAB
  0
TABLE
  2
STYLE
  5
3
330
0
100
AcDbSymbolTable
 70
    17
  0
STYLE
  5
26
330
3
100
AcDbSymbolTableRecord
100
AcDbTextStyleTableRecord
  2
Standard
 70
     0
 40
0.0
 41
1.0
 50
0.0
 71
     0
 42
0.2
  3
ARIAL.TTF
  4

1001
ACAD
1000
Arial
1071
      256
  0
STYLE
  5
74
330
3
100
AcDbSymbolTableRecord
100
AcDbTextStyleTableRecord
  2

 70
     1
 40
0.0
 41
1.0
 50
0.0
 71
     0
 42
0.2
  3
ltypeshp.shx
  4

  0
STYLE
  5
C4
330
3
100
AcDbSymbolTableRecord
100
AcDbTextStyleTableRecord
  2
Aktuell-BSI
 70
     0
 40
0.0
 41
1.0
 50
0.0
 71
     0
 42
0.2
  3
ARIAL.TTF
  4

1001
ACAD
1000
Arial
1071
      256
  0
STYLE
  5
C5
330
3
100
AcDbSymbolTableRecord
100
AcDbTextStyleTableRecord
  2
Kopie von TC 5 mm
 70
     0
 40
0.0
 41
1.199999928474426
 50
0.0
 71
     0
 42
0.2
  3
ARIAL.TTF
  4

1001
ACAD
1000
Arial
1071
      256
  0
STYLE
  5
C6
330
3
100
AcDbSymbolTableRecord
100
AcDbTextStyleTableRecord
  2
STANDARD-TC_020513_DIN
 70
     0
 40
0.0
 41
1.0
 50
0.0
 71
     0
 42
0.2
  3
ARIAL.TTF
  4

1001
ACAD
1000
Arial
1071
      256
  0
STYLE
  5
C7
330
3
100
AcDbSymbolTableRecord
100
AcDbTextStyleTableRecord
  2
STANDARD-TC_020513_DINGroßer Text
 70
     0
 40
0.0
 41
1.0
 50
0.0
 71
     0
 42
0.2
  3
ARIAL.TTF
  4

1001
ACAD
1000
Arial
1071
      256
  0
STYLE
  5
C8
330
3
100
AcDbSymbolTableRecord
100
AcDbTextStyleTableRecord
  2
STANDARD-TC_020513_DINNach Layer
 70
     0
 40
0.0
 41
1.0
 50
0.0
 71
     0
 42
0.2
  3
ARIAL.TTF
  4

1001
ACAD
1000
Arial
1071
      256
  0
STYLE
  5
C9
330
3
100
AcDbSymbolTableRecord
100
AcDbTextStyleTableRecord
  2
TC 2_5 mm
 70
     0
 40
0.0
 41
0.899999976158142
 50
0.0
 71
     0
 42
0.2
  3
ARIAL.TTF
  4

1001
ACAD
1000
Arial
1071
      256
  0
STYLE
  5
CA
330
3
100
AcDbSymbolTableRecord
100
AcDbTextStyleTableRecord
  2
TC 3_5 mm
 70
     0
 40
0.0
 41
0.7999999523162842
 50
0.0
 71
     0
 42
0.2
  3
ARIAL.TTF
  4

1001
ACAD
1000
Arial
1071
      256
  0
STYLE
  5
CB
330
3
100
AcDbSymbolTableRecord
100
AcDbTextStyleTableRecord
  2
TC 3_5 mmGroßer Text
 70
     0
 40
0.0
 41
0.899999976158142
 50
0.0
 71
     0
 42
0.2
  3
ARIAL.TTF
  4

1001
ACAD
1000
Arial
1071
      256
  0
STYLE
  5
CC
330
3
100
AcDbSymbolTableRecord
100
AcDbTextStyleTableRecord
  2
TC 3_5 mmNach Layer
 70
     0
 40
0.0
 41
0.899999976158142
 50
0.0
 71
     0
 42
0.2
  3
ARIAL.TTF
  4

1001
ACAD
1000
Arial
1071
      256
  0
STYLE
  5
CD
330
3
100
AcDbSymbolTableRecord
100
AcDbTextStyleTableRecord
  2
TC 4 mm
 70
     0
 40
0.0
 41
1.199999928474426
 50
0.0
 71
     0
 42
0.2
  3
ARIAL.TTF
  4

1001
ACAD
1000
Arial
1071
      256
  0
STYLE
  5
CE
330
3
100
AcDbSymbolTableRecord
100
AcDbTextStyleTableRecord
  2
TC 5 mm
 70
     0
 40
0.0
 41
0.899999976158142
 50
0.0
 71
     0
 42
0.2
  3
ARIAL.TTF
  4

1001
ACAD
1000
Arial
1071
      256
  0
STYLE
  5
CF
330
3
100
AcDbSymbolTableRecord
100
AcDbTextStyleTableRecord
  2
TC 5 mmNach Layer
 70
     0
 40
0.0
 41
0.899999976158142
 50
0.0
 71
     0
 42
0.2
  3
ARIAL.TTF
  4

1001
ACAD
1000
Arial
1071
      256
  0
STYLE
  5
D0
330
3
100
AcDbSymbolTableRecord
100
AcDbTextStyleTableRecord
  2
TC 7 mm
 70
     0
 40
0.0
 41
0.899999976158142
 50
0.0
 71
     0
 42
0.2
  3
ARIAL.TTF
  4

1001
ACAD
1000
Arial
1071
      256
  0
STYLE
  5
F9
330
3
100
AcDbSymbolTableRecord
100
AcDbTextStyleTableRecord
  2
TC 2_5 mm-ISOCPEUR
 70
     0
 40
0.0
 41
0.899999976158142
 50
0.0
 71
     0
 42
0.2
  3
isocpeur.ttf
  4

1001
ACAD
1000
ISOCPEUR
1071
      256
  0
STYLE
  5
FD
330
3
100
AcDbSymbolTableRecord
100
AcDbTextStyleTableRecord
  2
TC 3_5 mm-ISOCPEUR
 70
     0
 40
0.0
 41
0.899999976158142
 50
0.0
 71
     0
 42
0.2
  3
isocpeur.ttf
  4

1001
ACAD
1000
ISOCPEUR
1071
      256
  0
ENDTAB
  0
TABLE
  2
VIEW
  5
6
330
0
100
AcDbSymbolTable
 70
     0
  0
ENDTAB
  0
TABLE
  2
UCS
  5
7
330
0
100
AcDbSymbolTable
 70
     0
  0
ENDTAB
  0
TABLE
  2
APPID
  5
9
330
0
100
AcDbSymbolTable
 70
     1
  0
APPID
  5
27
330
9
100
AcDbSymbolTableRecord
100
AcDbRegAppTableRecord
  2
ACAD
 70
     0
  0
ENDTAB
  0
TABLE
  2
DIMSTYLE
  5
A
330
0
100
AcDbSymbolTable
 70
    17
100
AcDbDimStyleTable
 71
     2
340
D1
340
3F
  0
DIMSTYLE
105
3F
330
A
100
AcDbSymbolTableRecord
100
AcDbDimStyleTableRecord
  2
Standard
 70
     0
340
26
  0
DIMSTYLE
105
D1
102
{ACAD_REACTORS
330
392
330
453
330
518
330
5DD
330
6A2
330
767
330
832
102
}
330
A
100
AcDbSymbolTableRecord
100
AcDbDimStyleTableRecord
  2
STANDARD-TC_020513_DIN
 70
     0
 41
2.5
 42
1.0
 43
6.0
 44
2.0
 45
0.00000001
 46
10.0
 73
     0
 74
     0
 77
     1
 78
    12
 79
     3
140
3.5
143
0.03937
147
0.8
171
     3
172
     1
176
     7
177
     7
178
     7
271
     2
272
     2
274
     3
278
    44
340
C4
371
    25
372
    25
  0
DIMSTYLE
105
D2
330
A
100
AcDbSymbolTableRecord
100
AcDbDimStyleTableRecord
  2
STANDARD-TC_020513_DIN$7
 70
     0
 41
2.5
 42
1.0
 43
6.0
 44
2.0
 45
0.00000001
 46
10.0
 73
     0
 74
     0
 77
     1
 78
    12
 79
     3
140
3.5
143
0.03937
147
0.8
171
     3
172
     1
176
     7
177
     7
178
     7
271
     2
272
     2
274
     3
278
    44
340
C4
371
    25
372
    25
  0
DIMSTYLE
105
D3
330
A
100
AcDbSymbolTableRecord
100
AcDbDimStyleTableRecord
  2
STANDARD-TC_020513_DINGroßer Text
 70
     0
 41
5.0
 42
0.0
 43
6.0
 44
3.174999999999999
 45
0.00000001
 46
10.0
 73
     0
 74
     0
 77
     1
140
5.25
143
0.03937
146
0.6666666666666666
147
0.8
171
     3
172
     1
176
     7
177
     7
178
     7
271
     2
272
     2
274
     3
278
    44
340
C7
371
    25
372
    25
  0
DIMSTYLE
105
D4
330
A
100
AcDbSymbolTableRecord
100
AcDbDimStyleTableRecord
  2
STANDARD-TC_020513_DINGroßer Text$7
 70
     0
 41
5.0
 42
0.0
 43
6.0
 44
3.174999999999999
 45
0.00000001
 46
10.0
 73
     0
 74
     0
 77
     1
140
5.25
143
0.03937
146
0.6666666666666666
147
0.8
171
     3
172
     1
176
     7
177
     7
178
     7
271
     2
272
     2
274
     3
278
    44
340
C7
371
    25
372
    25
  0
DIMSTYLE
105
D5
330
A
100
AcDbSymbolTableRecord
100
AcDbDimStyleTableRecord
  2
Teccon Kiel Stil
 70
     0
 41
2.5
 42
0.0
 43
7.0
 44
2.0
 45
0.00000001
 46
10.0
 73
     0
 74
     0
 77
     1
 78
    12
 79
     3
140
3.5
143
0.03937
147
1.0
171
     3
172
     1
176
     7
177
     7
178
     7
179
     1
271
     1
272
     2
274
     3
278
    44
340
CA
371
    25
372
    25
  0
DIMSTYLE
105
D6
330
A
100
AcDbSymbolTableRecord
100
AcDbDimStyleTableRecord
  2
Teccon Kiel Stil$7
 70
     0
 41
2.5
 42
0.0
 43
7.0
 44
2.0
 45
0.00000001
 46
10.0
 73
     0
 74
     0
 77
     1
 78
    12
 79
     3
140
3.5
143
0.03937
147
1.0
171
     3
172
     1
176
     7
177
     7
178
     7
179
     1
271
     1
272
     2
274
     3
278
    44
340
CA
371
    25
372
    25
  0
DIMSTYLE
105
D7
330
A
100
AcDbSymbolTableRecord
100
AcDbDimStyleTableRecord
  2
Teccon Kiel StilGroßer Text
 70
     0
 41
5.0
 42
0.0
 43
7.0
 44
2.0
 45
0.00000001
 46
10.0
 73
     0
 74
     0
 77
     1
 78
    12
 79
     3
140
5.25
143
0.03937
146
0.6666666666666666
147
1.0
171
     3
172
     1
176
     7
177
     7
178
     7
179
     1
271
     1
272
     2
274
     3
278
    44
340
CB
371
    25
372
    25
  0
DIMSTYLE
105
D8
330
A
100
AcDbSymbolTableRecord
100
AcDbDimStyleTableRecord
  2
Teccon Kiel StilGroßer Text$7
 70
     0
 41
5.0
 42
0.0
 43
7.0
 44
2.0
 45
0.00000001
 46
10.0
 73
     0
 74
     0
 77
     1
 78
    12
 79
     3
140
5.25
143
0.03937
146
0.6666666666666666
147
1.0
171
     3
172
     1
176
     7
177
     7
178
     7
179
     1
271
     1
272
     2
274
     3
278
    44
340
CB
371
    25
372
    25
  0
DIMSTYLE
105
D9
330
A
100
AcDbSymbolTableRecord
100
AcDbDimStyleTableRecord
  2
Führungslinie-Ursprungsindikator(ISO)
 70
     0
 41
2.5
340
26
342
DA
  0
DIMSTYLE
105
E1
330
A
100
AcDbSymbolTableRecord
100
AcDbDimStyleTableRecord
  2
Führungslinie-Ursprungsindikator(TC_020513_DIN)
 70
     0
 41
2.5
340
26
342
DA
  0
DIMSTYLE
105
EC
330
A
100
AcDbSymbolTableRecord
100
AcDbDimStyleTableRecord
  2
Führungslinie - Bezugsstelle(ISO)
 70
     0
 41
2.5
340
26
342
DA
  0
DIMSTYLE
105
ED
330
A
100
AcDbSymbolTableRecord
100
AcDbDimStyleTableRecord
  2
Führungslinie - Bezugsstelle(TC_020513_DIN)
 70
     0
 41
2.5
340
26
342
DA
  0
DIMSTYLE
105
EE
330
A
100
AcDbSymbolTableRecord
100
AcDbDimStyleTableRecord
  2
Führungslinie - Punkt(ISO)
 70
     0
 41
2.5
340
26
342
DA
  0
DIMSTYLE
105
EF
330
A
100
AcDbSymbolTableRecord
100
AcDbDimStyleTableRecord
  2
Führungslinie - Punkt(TC_020513_DIN)
 70
     0
 41
2.5
340
26
342
DA
  0
DIMSTYLE
105
F0
330
A
100
AcDbSymbolTableRecord
100
AcDbDimStyleTableRecord
  2
Führungslinie(ISO)
 70
     0
 41
2.5
340
26
342
DA
  0
DIMSTYLE
105
F1
330
A
100
AcDbSymbolTableRecord
100
AcDbDimStyleTableRecord
  2
Führungslinie(TC_020513_DIN)
 70
     0
 41
2.5
340
26
342
DA
  0
ENDTAB
  0
TABLE
  2
BLOCK_RECORD
  5
1
330
0
100
AcDbSymbolTable
 70
    18
  0
BLOCK_RECORD
  5
37
330
1
100
AcDbSymbolTableRecord
100
AcDbBlockTableRecord
  2
*Model_Space
340
3A
  0
BLOCK_RECORD
  5
33
330
1
100
AcDbSymbolTableRecord
100
AcDbBlockTableRecord
  2
*Paper_Space
340
36
  0
BLOCK_RECORD
  5
3B
330
1
100
AcDbSymbolTableRecord
100
AcDbBlockTableRecord
  2
*Paper_Space0
340
3E
  0
BLOCK_RECORD
  5
DA
330
1
100
AcDbSymbolTableRecord
100
AcDbBlockTableRecord
  2
_Closed
340
0
  0
BLOCK_RECORD
  5
E2
330
1
100
AcDbSymbolTableRecord
100
AcDbBlockTableRecord
  2
DatumFilled45
340
0
  0
BLOCK_RECORD
  5
F2
330
1
100
AcDbSymbolTableRecord
100
AcDbBlockTableRecord
  2
DIN 6930 (Toleranzklasse)
340
0
  0
BLOCK_RECORD
  5
103
330
1
100
AcDbSymbolTableRecord
100
AcDbBlockTableRecord
  2
nicht bemaßte Radien
340
0
  0
BLOCK_RECORD
  5
10C
330
1
100
AcDbSymbolTableRecord
100
AcDbBlockTableRecord
  2
DIN ISO 13715 (Werkstückkanten)
340
0
  0
BLOCK_RECORD
  5
130
330
1
100
AcDbSymbolTableRecord
100
AcDbBlockTableRecord
  2
EN 12329 (Chromatierung)
340
0
  0
BLOCK_RECORD
  5
138
330
1
100
AcDbSymbolTableRecord
100
AcDbBlockTableRecord
  2
ISO 2768 (zul. Abweichung)
340
0
  0
BLOCK_RECORD
  5
141
330
1
100
AcDbSymbolTableRecord
100
AcDbBlockTableRecord
  2
DIN ISO 1302 (Oberflächen)
340
0
  0
BLOCK_RECORD
  5
149
330
1
100
AcDbSymbolTableRecord
100
AcDbBlockTableRecord
  2
Ränder Ilme Rahmen A4 quer
340
0
102
{BLKREFS
331
153
102
}
  0
BLOCK_RECORD
  5
154
330
1
100
AcDbSymbolTableRecord
100
AcDbBlockTableRecord
  2
Schriftfelder Ilme
340
0
102
{BLKREFS
331
1C7
102
}
  0
BLOCK_RECORD
  5
394
330
1
100
AcDbSymbolTableRecord
100
AcDbBlockTableRecord
  2
*D11
340
0
  0
BLOCK_RECORD
  5
454
330
1
100
AcDbSymbolTableRecord
100
AcDbBlockTableRecord
  2
*D12
340
0
  0
BLOCK_RECORD
  5
519
330
1
100
AcDbSymbolTableRecord
100
AcDbBlockTableRecord
  2
*D13
340
0
  0
BLOCK_RECORD
  5
5DE
330
1
100
AcDbSymbolTableRecord
100
AcDbBlockTableRecord
  2
*D14
340
0
  0
BLOCK_RECORD
  5
6A3
330
1
100
AcDbSymbolTableRecord
100
AcDbBlockTableRecord
  2
*D15
340
0
  0
BLOCK_RECORD
  5
768
330
1
100
AcDbSymbolTableRecord
100
AcDbBlockTableRecord
  2
*D16
340
0
  0
BLOCK_RECORD
  5
833
330
1
100
AcDbSymbolTableRecord
100
AcDbBlockTableRecord
  2
*D17
340
0
  0
ENDTAB
  0
ENDSEC
  0
SECTION
  2
BLOCKS
  0
BLOCK
  5
38
330
37
100
AcDbEntity
  8
0
100
AcDbBlockBegin
  2
*Model_Space
 70
     0
 10
0.0
 20
0.0
 30
0.0
  3
*Model_Space
  1

  0
ENDBLK
  5
39
330
37
100
AcDbEntity
  8
0
100
AcDbBlockEnd
  0
BLOCK
  5
34
330
33
100
AcDbEntity
 67
     1
  8
0
100
AcDbBlockBegin
  2
*Paper_Space
 70
     0
 10
0.0
 20
0.0
 30
0.0
  3
*Paper_Space
  1

  0
ENDBLK
  5
35
330
33
100
AcDbEntity
 67
     1
  8
0
100
AcDbBlockEnd
  0
BLOCK
  5
3C
330
3B
100
AcDbEntity
 67
     1
  8
0
100
AcDbBlockBegin
  2
*Paper_Space0
 70
     0
 10
0.0
 20
0.0
 30
0.0
  3
*Paper_Space0
  1

  0
ENDBLK
  5
3D
330
3B
100
AcDbEntity
 67
     1
  8
0
100
AcDbBlockEnd
  0
BLOCK
  5
DF
330
DA
100
AcDbEntity
  8
0
100
AcDbBlockBegin
  2
_Closed
 70
     0
 10
0.0
 20
0.0
 30
0.0
  3
_Closed
  1

  0
LINE
  5
DB
330
DA
100
AcDbEntity
  8
0
  6
ByBlock
 62
     0
370
    -2
100
AcDbLine
 10
-1.0
 20
0.1666666666666666
 30
0.0
 11
0.0
 21
0.0
 31
0.0
  0
LINE
  5
DC
330
DA
100
AcDbEntity
  8
0
  6
ByBlock
 62
     0
370
    -2
100
AcDbLine
 10
0.0
 20
0.0
 30
0.0
 11
-1.0
 21
-0.1666666666666666
 31
0.0
  0
LINE
  5
DD
330
DA
100
AcDbEntity
  8
0
  6
ByBlock
 62
     0
370
    -2
100
AcDbLine
 10
-1.0
 20
0.1666666666666666
 30
0.0
 11
-1.0
 21
-0.1666666666666666
 31
0.0
  0
LINE
  5
DE
330
DA
100
AcDbEntity
  8
0
  6
ByBlock
 62
     0
370
    -2
100
AcDbLine
 10
0.0
 20
0.0
 30
0.0
 11
-1.0
 21
0.0
 31
0.0
  0
ENDBLK
  5
E0
330
DA
100
AcDbEntity
  8
0
100
AcDbBlockEnd
  0
BLOCK
  5
E3
330
E2
100
AcDbEntity
  8
0
100
AcDbBlockBegin
  2
DatumFilled45
 70
     0
 10
0.0
 20
0.0
 30
0.0
  3
DatumFilled45
  1

  0
POLYLINE
  5
E5
330
E2
100
AcDbEntity
  8
0
 62
     0
100
AcDb2dPolyline
 66
     1
 10
0.0
 20
0.0
 30
0.0
 70
   128
  0
VERTEX
  5
E6
330
E5
100
AcDbEntity
  8
0
 62
     0
100
AcDbVertex
100
AcDb2dVertex
 10
0.0
 20
1.0
 30
0.0
  0
VERTEX
  5
E7
330
E5
100
AcDbEntity
  8
0
 62
     0
100
AcDbVertex
100
AcDb2dVertex
 10
0.0
 20
-1.0
 30
0.0
  0
VERTEX
  5
E9
330
E5
100
AcDbEntity
  8
0
 62
     0
100
AcDbVertex
100
AcDb2dVertex
 10
-1.0
 20
0.0
 30
0.0
  0
VERTEX
  5
EA
330
E5
100
AcDbEntity
  8
0
 62
     0
100
AcDbVertex
100
AcDb2dVertex
 10
0.0
 20
1.0
 30
0.0
  0
SEQEND
  5
E8
330
E5
100
AcDbEntity
  8
0
 62
     0
  0
SOLID
  5
EB
330
E2
100
AcDbEntity
  8
0
 62
     0
100
AcDbTrace
 10
0.0
 20
1.0
 30
0.0
 11
0.0
 21
-1.0
 31
0.0
 12
-1.0
 22
0.0
 32
0.0
 13
0.0
 23
1.0
 33
0.0
  0
ENDBLK
  5
E4
330
E2
100
AcDbEntity
  8
0
100
AcDbBlockEnd
  0
BLOCK
  5
F3
330
F2
100
AcDbEntity
  8
0
100
AcDbBlockBegin
  2
DIN 6930 (Toleranzklasse)
 70
     2
 10
0.0
 20
0.0
 30
0.0
  3
DIN 6930 (Toleranzklasse)
  1

  0
LINE
  5
F5
330
F2
100
AcDbEntity
  8
Skizziergeometrie(ISO)
100
AcDbLine
 10
-49.99999999999999
 20
24.99999999999996
 30
0.0
 11
0.0
 21
24.99999999999996
 31
0.0
  0
LINE
  5
F6
330
F2
100
AcDbEntity
  8
Skizziergeometrie(ISO)
100
AcDbLine
 10
0.0
 20
24.99999999999996
 30
0.0
 11
0.0
 21
0.0
 31
0.0
  0
LINE
  5
F7
330
F2
100
AcDbEntity
  8
Skizziergeometrie(ISO)
100
AcDbLine
 10
0.0
 20
0.0
 30
0.0
 11
-49.99999999999999
 21
0.0
 31
0.0
  0
LINE
  5
F8
330
F2
100
AcDbEntity
  8
Skizziergeometrie(ISO)
100
AcDbLine
 10
-49.99999999999999
 20
0.0
 30
0.0
 11
-49.99999999999999
 21
24.99999999999996
 31
0.0
  0
MTEXT
  5
FA
102
{ACAD_XDICTIONARY
360
90C
102
}
330
F2
100
AcDbEntity
  8
Symbole(ISO)
 62
     7
100
AcDbMText
 10
-25.01617139266887
 20
22.49496284479633
 30
0.0
 40
2.5
 41
49.93534911063455
 71
     5
 72
     1
  1
F\U+00FCr spanlose Bearbeitung
  7
TC 2_5 mm-ISOCPEUR
 73
     1
 44
1.0
1001
ACAD
1000
MTEXTBEGIN
1070
    73
1070
     1
1070
    44
1040
1.0
1070
    74
1070
     0
1000
MTEXTEND
  0
MTEXT
  5
FC
330
F2
100
AcDbEntity
  8
Symbole(ISO)
 62
     7
100
AcDbMText
 10
-24.96550299476308
 20
17.97814514565743
 30
0.0
 40
2.5
 41
49.94698265738096
 71
     5
 72
     1
  1
Allgemeintoleranz
  7
TC 2_5 mm-ISOCPEUR
 73
     1
 44
1.0
1001
ACAD
1000
MTEXTBEGIN
1070
    73
1070
     1
1070
    44
1040
1.0
1070
    74
1070
     0
1000
MTEXTEND
  0
MTEXT
  5
FE
330
F2
100
AcDbEntity
  8
Symbole(ISO)
 62
     7
100
AcDbMText
 10
-22.00032990803074
 20
12.97814514565747
 30
0.0
 40
3.499999940395355
 41
28.04641142085023
 71
     6
 72
     1
  1
DIN 6930-
  7
TC 3_5 mm-ISOCPEUR
 73
     1
 44
1.0
1001
ACAD
1000
MTEXTBEGIN
1070
    73
1070
     1
1070
    44
1040
1.0
1070
    74
1070
     0
1000
MTEXTEND
  0
MTEXT
  5
FF
330
F2
100
AcDbEntity
  8
Symbole(ISO)
 62
     7
100
AcDbMText
 10
-24.98510412015335
 20
5.018941170990345
 30
0.0
 40
2.5
 41
50.05946813167525
 71
     5
 72
     1
  1
(zul. Abweichung der\PWinkelstellung DIN 6935)
  7
TC 2_5 mm-ISOCPEUR
 73
     2
 44
1.068348169326782
1001
ACAD
1000
MTEXTBEGIN
1070
    73
1070
     2
1070
    44
1040
1.068348169326782
1070
    74
1070
     0
1000
MTEXTEND
  0
ATTDEF
  5
100
330
F2
100
AcDbEntity
  8
Symbole(ISO)
 62
     7
100
AcDbText
 10
-21.93383492465724
 20
11.2184168455105
 30
0.0
 40
3.499999940395355
  1
 
 41
0.899999976158142
  7
TC 3_5 mm-ISOCPEUR
 11
-21.93383492465724
 21
12.96841681570818
 31
0.0
100
AcDbAttributeDefinition
  3
Toleranzklasse
  2
Toleranzklasse
 70
     0
 74
     2
  0
ENDBLK
  5
F4
330
F2
100
AcDbEntity
  8
0
100
AcDbBlockEnd
  0
BLOCK
  5
104
330
103
100
AcDbEntity
  8
0
100
AcDbBlockBegin
  2
nicht bemaßte Radien
 70
     2
 10
0.0
 20
0.0
 30
0.0
  3
nicht bemaßte Radien
  1

  0
LINE
  5
106
330
103
100
AcDbEntity
  8
Skizziergeometrie(ISO)
100
AcDbLine
 10
0.0
 20
0.0
 30
0.0
 11
-50.0
 21
0.0
 31
0.0
  0
LINE
  5
107
330
103
100
AcDbEntity
  8
Skizziergeometrie(ISO)
100
AcDbLine
 10
-50.0
 20
0.0
 30
0.0
 11
-50.0
 21
5.0
 31
0.0
  0
LINE
  5
108
330
103
100
AcDbEntity
  8
Skizziergeometrie(ISO)
100
AcDbLine
 10
-50.0
 20
5.0
 30
0.0
 11
0.0
 21
5.0
 31
0.0
  0
LINE
  5
109
330
103
100
AcDbEntity
  8
Skizziergeometrie(ISO)
100
AcDbLine
 10
0.0
 20
5.0
 30
0.0
 11
0.0
 21
0.0
 31
0.0
  0
MTEXT
  5
10A
102
{ACAD_XDICTIONARY
360
90E
102
}
330
103
100
AcDbEntity
  8
Symbole(ISO)
 62
     7
100
AcDbMText
 10
-28.98102517277721
 20
2.530616500783118
 30
0.0
 40
2.5
 41
41.95492584233122
 71
     5
 72
     1
  1
Alle nicht bema\U+00DFten Radien R
  7
TC 2_5 mm-ISOCPEUR
 73
     1
 44
1.0
1001
ACAD
1000
MTEXTBEGIN
1070
    73
1070
     1
1070
    44
1040
1.0
1070
    74
1070
     0
1000
MTEXTEND
  0
ATTDEF
  5
10B
330
103
100
AcDbEntity
  8
Symbole(ISO)
 62
     7
100
AcDbText
 10
-4.624331584212832
 20
1.293984431277515
 30
0.0
 40
2.5
  1
 
 41
0.899999976158142
  7
TC 2_5 mm-ISOCPEUR
 72
     1
 11
-3.949331602094225
 21
2.543984431277515
 31
0.0
100
AcDbAttributeDefinition
  3
Radius
  2
Radius
 70
     0
 74
     2
  0
ENDBLK
  5
105
330
103
100
AcDbEntity
  8
0
100
AcDbBlockEnd
  0
BLOCK
  5
10D
330
10C
100
AcDbEntity
  8
0
100
AcDbBlockBegin
  2
DIN ISO 13715 (Werkstückkanten)
 70
     2
 10
0.0
 20
0.0
 30
0.0
  3
DIN ISO 13715 (Werkstückkanten)
  1

  0
LINE
  5
10F
102
{ACAD_REACTORS
330
112
102
}
330
10C
100
AcDbEntity
  8
0
100
AcDbLine
 10
-35.0
 20
20.0
 30
0.0
 11
-32.75944236602587
 21
21.71924034067061
 31
0.0
  0
LINE
  5
110
102
{ACAD_REACTORS
330
112
102
}
330
10C
100
AcDbEntity
  8
0
100
AcDbLine
 10
-33.28075965932943
 20
22.24055763397416
 30
0.0
 11
-35.0
 21
20.0
 31
0.0
  0
LINE
  5
111
102
{ACAD_REACTORS
330
112
102
}
330
10C
100
AcDbEntity
  8
0
100
AcDbLine
 10
-32.75944236602587
 20
21.71924034067061
 30
0.0
 11
-33.28075965932943
 21
22.24055763397416
 31
0.0
  0
HATCH
  5
112
330
10C
100
AcDbEntity
  8
Schraffur
 62
     7
100
AcDbHatch
 10
0.0
 20
0.0
 30
0.0
210
0.0
220
0.0
230
1.0
  2
SOLID
 70
     1
 71
     1
 91
        1
 92
        1
 93
        3
 72
     1
 10
-35.0
 20
20.0
 11
-32.75944236602587
 21
21.71924034067061
 72
     1
 10
-32.75944236602587
 20
21.71924034067061
 11
-33.28075965932943
 21
22.24055763397416
 72
     1
 10
-33.28075965932943
 20
22.24055763397416
 11
-35.0
 21
20.0
 97
        3
330
10F
330
111
330
110
 75
     0
 76
     1
 98
        1
 10
0.0
 20
0.0
  0
LINE
  5
113
102
{ACAD_REACTORS
330
116
102
}
330
10C
100
AcDbEntity
  8
0
100
AcDbLine
 10
-20.00000000000003
 20
20.00000000000003
 30
0.0
 11
-17.7594423660259
 21
21.71924034067057
 31
0.0
  0
LINE
  5
114
102
{ACAD_REACTORS
330
116
102
}
330
10C
100
AcDbEntity
  8
0
100
AcDbLine
 10
-18.28075965932939
 20
22.24055763397406
 30
0.0
 11
-20.00000000000003
 21
20.00000000000003
 31
0.0
  0
LINE
  5
115
102
{ACAD_REACTORS
330
116
102
}
330
10C
100
AcDbEntity
  8
0
100
AcDbLine
 10
-17.7594423660259
 20
21.71924034067057
 30
0.0
 11
-18.28075965932939
 21
22.24055763397406
 31
0.0
  0
HATCH
  5
116
330
10C
100
AcDbEntity
  8
Schraffur
 62
     7
100
AcDbHatch
 10
0.0
 20
0.0
 30
0.0
210
0.0
220
0.0
230
1.0
  2
SOLID
 70
     1
 71
     1
 91
        1
 92
        1
 93
        3
 72
     1
 10
-20.00000000000003
 20
20.00000000000003
 11
-17.7594423660259
 21
21.71924034067057
 72
     1
 10
-17.7594423660259
 20
21.71924034067057
 11
-18.28075965932939
 21
22.24055763397406
 72
     1
 10
-18.28075965932939
 20
22.24055763397406
 11
-20.00000000000003
 21
20.00000000000003
 97
        3
330
113
330
115
330
114
 75
     0
 76
     1
 98
        1
 10
0.0
 20
0.0
  0
LINE
  5
117
330
10C
100
AcDbEntity
  8
Skizziergeometrie(ISO)
100
AcDbLine
 10
-39.89999999999998
 20
20.0
 30
0.0
 11
-35.0
 21
20.0
 31
0.0
  0
LINE
  5
118
330
10C
100
AcDbEntity
  8
Skizziergeometrie(ISO)
100
AcDbLine
 10
-35.0
 20
20.0
 30
0.0
 11
-34.99999999999996
 21
15.09999999999998
 31
0.0
  0
LINE
  5
119
330
10C
100
AcDbEntity
  8
Skizziergeometrie(ISO)
100
AcDbLine
 10
-20.00000000000003
 20
20.00000000000003
 30
0.0
 11
-15.10000000000005
 21
20.00000000000003
 31
0.0
  0
LINE
  5
11A
330
10C
100
AcDbEntity
  8
Skizziergeometrie(ISO)
100
AcDbLine
 10
-20.00000000000003
 20
20.00000000000003
 30
0.0
 11
-20.00000000000003
 21
24.90000000000002
 31
0.0
  0
LINE
  5
11B
330
10C
100
AcDbEntity
  8
Skizziergeometrie(ISO)
100
AcDbLine
 10
-35.0
 20
20.0
 30
0.0
 11
-31.28768939877062
 21
23.71231060122938
 31
0.0
  0
LINE
  5
11C
330
10C
100
AcDbEntity
  8
Skizziergeometrie(ISO)
100
AcDbLine
 10
-31.28768939877062
 20
23.71231060122938
 30
0.0
 11
-26.3876893987706
 21
23.71231060122938
 31
0.0
  0
LINE
  5
11D
330
10C
100
AcDbEntity
  8
Skizziergeometrie(ISO)
100
AcDbLine
 10
-35.0
 20
20.0
 30
0.0
 11
-33.28075965932943
 21
22.24055763397416
 31
0.0
  0
LINE
  5
11E
330
10C
100
AcDbEntity
  8
Skizziergeometrie(ISO)
100
AcDbLine
 10
-33.28075965932943
 20
22.24055763397416
 30
0.0
 11
-32.75944236602587
 21
21.71924034067061
 31
0.0
  0
LINE
  5
11F
330
10C
100
AcDbEntity
  8
Skizziergeometrie(ISO)
100
AcDbLine
 10
-32.75944236602587
 20
21.71924034067061
 30
0.0
 11
-35.0
 21
20.0
 31
0.0
  0
LINE
  5
120
330
10C
100
AcDbEntity
  8
Skizziergeometrie(ISO)
100
AcDbLine
 10
-31.28768939877062
 20
23.71231060122938
 30
0.0
 11
-31.28768939877062
 21
28.61231060122936
 31
0.0
  0
LINE
  5
121
330
10C
100
AcDbEntity
  8
Skizziergeometrie(ISO)
100
AcDbLine
 10
-18.02010101267761
 20
21.97989898732235
 30
0.0
 11
-16.28768939877059
 21
23.71231060122938
 31
0.0
  0
LINE
  5
122
330
10C
100
AcDbEntity
  8
Skizziergeometrie(ISO)
100
AcDbLine
 10
-16.28768939877059
 20
23.71231060122938
 30
0.0
 11
-11.3876893987706
 21
23.71231060122938
 31
0.0
  0
LINE
  5
123
330
10C
100
AcDbEntity
  8
Skizziergeometrie(ISO)
100
AcDbLine
 10
-20.00000000000003
 20
20.00000000000003
 30
0.0
 11
-18.28075965932939
 21
22.24055763397406
 31
0.0
  0
LINE
  5
124
330
10C
100
AcDbEntity
  8
Skizziergeometrie(ISO)
100
AcDbLine
 10
-18.28075965932939
 20
22.24055763397406
 30
0.0
 11
-17.7594423660259
 21
21.71924034067057
 31
0.0
  0
LINE
  5
125
330
10C
100
AcDbEntity
  8
Skizziergeometrie(ISO)
100
AcDbLine
 10
-17.7594423660259
 20
21.71924034067057
 30
0.0
 11
-20.00000000000003
 21
20.00000000000003
 31
0.0
  0
LINE
  5
126
330
10C
100
AcDbEntity
  8
Skizziergeometrie(ISO)
100
AcDbLine
 10
-16.28768939877059
 20
23.71231060122938
 30
0.0
 11
-16.28768939877059
 21
28.61231060122936
 31
0.0
  0
LINE
  5
127
330
10C
100
AcDbEntity
  8
Skizziergeometrie(ISO)
100
AcDbLine
 10
-49.99999999999999
 20
35.0
 30
0.0
 11
0.0
 21
35.0
 31
0.0
  0
LINE
  5
128
330
10C
100
AcDbEntity
  8
Skizziergeometrie(ISO)
100
AcDbLine
 10
0.0
 20
35.0
 30
0.0
 11
0.0
 21
0.0
 31
0.0
  0
LINE
  5
129
330
10C
100
AcDbEntity
  8
Skizziergeometrie(ISO)
100
AcDbLine
 10
0.0
 20
0.0
 30
0.0
 11
-49.99999999999999
 21
0.0
 31
0.0
  0
LINE
  5
12A
330
10C
100
AcDbEntity
  8
Skizziergeometrie(ISO)
100
AcDbLine
 10
-49.99999999999999
 20
0.0
 30
0.0
 11
-49.99999999999999
 21
35.0
 31
0.0
  0
MTEXT
  5
12B
102
{ACAD_XDICTIONARY
360
910
102
}
330
10C
100
AcDbEntity
  8
Symbole(ISO)
 62
     7
100
AcDbMText
 10
-24.97893135154584
 20
10.23779293592927
 30
0.0
 40
3.499999940395355
 41
49.9873458157533
 71
     5
 72
     1
  1
Werkst\U+00FCckkanten\Pnach ISO 13715
  7
TC 3_5 mm-ISOCPEUR
 73
     2
 44
1.068348169326782
1001
ACAD
1000
MTEXTBEGIN
1070
    73
1070
     2
1070
    44
1040
1.068348169326782
1070
    74
1070
     0
1000
MTEXTEND
  0
ATTDEF
  5
12C
330
10C
100
AcDbEntity
  8
Symbole(ISO)
 62
     7
100
AcDbText
 10
-30.16177492853139
 20
24.5808246293851
 30
0.0
 40
2.5
  1
 
 41
0.899999976158142
  7
TC 2_5 mm-ISOCPEUR
 11
-30.16177492853139
 21
25.8308246293851
 31
0.0
100
AcDbAttributeDefinition
  3
AK unten
  2
AK_unten
 70
     0
 74
     2
  0
ATTDEF
  5
12D
330
10C
100
AcDbEntity
  8
Symbole(ISO)
 62
     7
100
AcDbText
 10
-30.17792390794348
 20
27.58528770975683
 30
0.0
 40
2.5
  1
 
 41
0.899999976158142
  7
TC 2_5 mm-ISOCPEUR
 11
-30.17792390794348
 21
28.83528770975683
 31
0.0
100
AcDbAttributeDefinition
  3
AK oben
  2
AK_oben
 70
     0
 74
     2
  0
ATTDEF
  5
12E
330
10C
100
AcDbEntity
  8
Symbole(ISO)
 62
     7
100
AcDbText
 10
-15.11922386270676
 20
24.61259748150297
 30
0.0
 40
2.5
  1
 
 41
0.899999976158142
  7
TC 2_5 mm-ISOCPEUR
 11
-15.11922386270676
 21
25.86259748150297
 31
0.0
100
AcDbAttributeDefinition
  3
IK unten
  2
IK_unten
 70
     0
 74
     2
  0
ATTDEF
  5
12F
330
10C
100
AcDbEntity
  8
Symbole(ISO)
 62
     7
100
AcDbText
 10
-15.14487582203273
 20
27.61806754523864
 30
0.0
 40
2.5
  1
 
 41
0.899999976158142
  7
TC 2_5 mm-ISOCPEUR
 11
-15.14487582203273
 21
28.86806754523864
 31
0.0
100
AcDbAttributeDefinition
  3
IK oben
  2
IK_oben
 70
     0
 74
     2
  0
ENDBLK
  5
10E
330
10C
100
AcDbEntity
  8
0
100
AcDbBlockEnd
  0
BLOCK
  5
131
330
130
100
AcDbEntity
  8
0
100
AcDbBlockBegin
  2
EN 12329 (Chromatierung)
 70
     0
 10
0.0
 20
0.0
 30
0.0
  3
EN 12329 (Chromatierung)
  1

  0
LINE
  5
133
330
130
100
AcDbEntity
  8
Skizziergeometrie(ISO)
100
AcDbLine
 10
0.0
 20
0.0
 30
0.0
 11
-50.0
 21
0.0
 31
0.0
  0
LINE
  5
134
330
130
100
AcDbEntity
  8
Skizziergeometrie(ISO)
100
AcDbLine
 10
-50.0
 20
0.0
 30
0.0
 11
-50.0
 21
15.0
 31
0.0
  0
LINE
  5
135
330
130
100
AcDbEntity
  8
Skizziergeometrie(ISO)
100
AcDbLine
 10
-50.0
 20
15.0
 30
0.0
 11
0.0
 21
15.00000000000003
 31
0.0
  0
LINE
  5
136
330
130
100
AcDbEntity
  8
Skizziergeometrie(ISO)
100
AcDbLine
 10
0.0
 20
15.00000000000003
 30
0.0
 11
0.0
 21
0.0
 31
0.0
  0
MTEXT
  5
137
330
130
100
AcDbEntity
  8
Symbole(ISO)
 62
     7
100
AcDbMText
 10
-24.98833105758937
 20
7.490142772208123
 30
0.0
 40
2.5
 41
49.83545872181219
 71
     5
 72
     1
  1
Verzinkt FE / ZN / C\PEN 12329\P(gelb chromatiert)
  7
TC 2_5 mm-ISOCPEUR
 73
     2
 44
1.068348169326782
1001
ACAD
1000
MTEXTBEGIN
1070
    73
1070
     2
1070
    44
1040
1.068348169326782
1070
    74
1070
     0
1000
MTEXTEND
  0
ENDBLK
  5
132
330
130
100
AcDbEntity
  8
0
100
AcDbBlockEnd
  0
BLOCK
  5
139
330
138
100
AcDbEntity
  8
0
100
AcDbBlockBegin
  2
ISO 2768 (zul. Abweichung)
 70
     2
 10
0.0
 20
0.0
 30
0.0
  3
ISO 2768 (zul. Abweichung)
  1

  0
LINE
  5
13B
330
138
100
AcDbEntity
  8
Skizziergeometrie(ISO)
100
AcDbLine
 10
-26.0
 20
0.0
 30
0.0
 11
0.0
 21
0.0
 31
0.0
  0
LINE
  5
13C
330
138
100
AcDbEntity
  8
Skizziergeometrie(ISO)
100
AcDbLine
 10
0.0
 20
0.0
 30
0.0
 11
0.0
 21
17.0
 31
0.0
  0
LINE
  5
13D
330
138
100
AcDbEntity
  8
Skizziergeometrie(ISO)
100
AcDbLine
 10
0.0
 20
17.0
 30
0.0
 11
-26.0
 21
17.0
 31
0.0
  0
LINE
  5
13E
330
138
100
AcDbEntity
  8
Skizziergeometrie(ISO)
100
AcDbLine
 10
-26.0
 20
17.0
 30
0.0
 11
-26.0
 21
0.0
 31
0.0
  0
MTEXT
  5
13F
330
138
100
AcDbEntity
  8
Symbole(ISO)
 62
     7
100
AcDbMText
 10
-7.994454197588593
 20
5.526470854171373
 30
0.0
 40
2.5
 41
17.99309312940538
 71
     6
 72
     1
  1
ISO 2768-
  7
TC 2_5 mm-ISOCPEUR
 73
     1
 44
1.0
1001
ACAD
1000
MTEXTBEGIN
1070
    73
1070
     1
1070
    44
1040
1.0
1070
    74
1070
     0
1000
MTEXTEND
  0
ATTDEF
  5
140
330
138
100
AcDbEntity
  8
Symbole(ISO)
 62
     7
100
AcDbText
 10
-7.924832568762529
 20
4.240604076340716
 30
0.0
 40
2.5
  1
 
 41
0.899999976158142
  7
TC 2_5 mm-ISOCPEUR
 11
-7.924832568762529
 21
5.490604076340716
 31
0.0
100
AcDbAttributeDefinition
  3
Grad
  2
Grad
 70
     0
 74
     2
  0
ENDBLK
  5
13A
330
138
100
AcDbEntity
  8
0
100
AcDbBlockEnd
  0
BLOCK
  5
142
330
141
100
AcDbEntity
  8
0
100
AcDbBlockBegin
  2
DIN ISO 1302 (Oberflächen)
 70
     0
 10
0.0
 20
0.0
 30
0.0
  3
DIN ISO 1302 (Oberflächen)
  1

  0
LINE
  5
144
330
141
100
AcDbEntity
  8
Skizziergeometrie(ISO)
100
AcDbLine
 10
-18.19999999999999
 20
0.0
 30
0.0
 11
0.0
 21
0.0
 31
0.0
  0
LINE
  5
145
330
141
100
AcDbEntity
  8
Skizziergeometrie(ISO)
100
AcDbLine
 10
0.0
 20
0.0
 30
0.0
 11
0.0
 21
17.0
 31
0.0
  0
LINE
  5
146
330
141
100
AcDbEntity
  8
Skizziergeometrie(ISO)
100
AcDbLine
 10
0.0
 20
17.0
 30
0.0
 11
-18.2
 21
17.0
 31
0.0
  0
LINE
  5
147
330
141
100
AcDbEntity
  8
Skizziergeometrie(ISO)
100
AcDbLine
 10
-18.2
 20
17.0
 30
0.0
 11
-18.19999999999999
 21
0.0
 31
0.0
  0
MTEXT
  5
148
330
141
100
AcDbEntity
  8
Symbole(ISO)
 62
     7
100
AcDbMText
 10
-9.137586403397849
 20
5.561325836084813
 30
0.0
 40
2.5
 41
18.21623868792871
 71
     5
 72
     1
  1
DIN ISO 1302
  7
TC 2_5 mm-ISOCPEUR
 73
     1
 44
1.0
1001
ACAD
1000
MTEXTBEGIN
1070
    73
1070
     1
1070
    44
1040
1.0
1070
    74
1070
     0
1000
MTEXTEND
  0
ENDBLK
  5
143
330
141
100
AcDbEntity
  8
0
100
AcDbBlockEnd
  0
BLOCK
  5
14A
330
149
100
AcDbEntity
  8
0
100
AcDbBlockBegin
  2
Ränder Ilme Rahmen A4 quer
 70
     0
 10
0.0
 20
0.0
 30
0.0
  3
Ränder Ilme Rahmen A4 quer
  1

  0
LINE
  5
14C
330
149
100
AcDbEntity
  8
Skizziergeometrie(ISO)
100
AcDbLine
 10
9.999999999999982
 20
9.999999999999952
 30
0.0
 11
10.00000000000001
 21
190.0
 31
0.0
  0
LINE
  5
14D
330
149
100
AcDbEntity
  8
Skizziergeometrie(ISO)
100
AcDbLine
 10
10.00000000000001
 20
190.0
 30
0.0
 11
287.0
 21
190.0
 31
0.0
  0
LINE
  5
14E
330
149
100
AcDbEntity
  8
Skizziergeometrie(ISO)
100
AcDbLine
 10
9.999999999999982
 20
9.999999999999952
 30
0.0
 11
287.0
 21
10.00000000000003
 31
0.0
  0
LINE
  5
14F
330
149
100
AcDbEntity
  8
Skizziergeometrie(ISO)
100
AcDbLine
 10
148.5
 20
210.0
 30
0.0
 11
148.5
 21
196.0
 31
0.0
  0
LINE
  5
150
330
149
100
AcDbEntity
  8
Skizziergeometrie(ISO)
100
AcDbLine
 10
287.0
 20
190.0
 30
0.0
 11
287.0
 21
10.00000000000003
 31
0.0
  0
MTEXT
  5
151
330
149
100
AcDbEntity
  8
Symbole(ISO)
 62
     7
100
AcDbMText
 10
148.5
 20
196.0
 30
0.0
 40
3.499999940395355
 41
0.0
 71
     2
 72
     1
  1
\fISOCPEUR|b0|i0;\H3.5000;    Diritti riservati     All rights reseved
  7
TC 2_5 mm
 73
     1
 44
1.0
1001
ACAD
1000
MTEXTBEGIN
1070
    73
1070
     1
1070
    44
1040
1.0
1070
    74
1070
     0
1000
MTEXTEND
  0
ENDBLK
  5
14B
330
149
100
AcDbEntity
  8
0
100
AcDbBlockEnd
  0
BLOCK
  5
155
330
154
100
AcDbEntity
  8
0
100
AcDbBlockBegin
  2
Schriftfelder Ilme
 70
     2
 10
0.0
 20
0.0
 30
0.0
  3
Schriftfelder Ilme
  1

  0
ARC
  5
157
102
{ACAD_REACTORS
330
15B
102
}
330
154
100
AcDbEntity
  8
0
100
AcDbCircle
 10
184.655189950303
 20
19.15390948356282
 30
10.0
 40
0.3333333333333996
100
AcDbArc
 50
0.0
 51
180.0
  0
LINE
  5
158
102
{ACAD_REACTORS
330
15B
102
}
330
154
100
AcDbEntity
  8
0
100
AcDbLine
 10
184.3218566169696
 20
15.84737070168959
 30
10.0
 11
184.3218566169696
 21
19.15390948356282
 31
10.0
  0
ARC
  5
159
102
{ACAD_REACTORS
330
15B
102
}
330
154
100
AcDbEntity
  8
0
100
AcDbCircle
 10
184.655189950303
 20
15.84737070168959
 30
10.0
 40
0.3333333333333997
100
AcDbArc
 50
180.0
 51
0.0
  0
LINE
  5
15A
102
{ACAD_REACTORS
330
15B
102
}
330
154
100
AcDbEntity
  8
0
100
AcDbLine
 10
184.9885232836365
 20
19.15390948356282
 30
10.0
 11
184.9885232836365
 21
15.84737070168959
 31
10.0
  0
HATCH
  5
15B
330
154
100
AcDbEntity
  8
Schraffur
 62
     7
100
AcDbHatch
 10
0.0
 20
0.0
 30
0.0
210
0.0
220
0.0
230
1.0
  2
SOLID
 70
     1
 71
     1
 91
        1
 92
        1
 93
        4
 72
     2
 10
184.655189950303
 20
19.15390948356282
 40
0.3333333333333996
 50
0.0
 51
180.0
 73
     1
 72
     1
 10
184.3218566169696
 20
19.15390948356282
 11
184.3218566169696
 21
15.84737070168959
 72
     2
 10
184.655189950303
 20
15.84737070168959
 40
0.3333333333333997
 50
180.0
 51
360.0
 73
     1
 72
     1
 10
184.9885232836365
 20
15.84737070168959
 11
184.9885232836365
 21
19.15390948356282
 97
        4
330
157
330
158
330
159
330
15A
 75
     0
 76
     1
 98
        1
 10
0.0
 20
0.0
  0
LINE
  5
15C
102
{ACAD_REACTORS
330
163
102
}
330
154
100
AcDbEntity
  8
0
100
AcDbLine
 10
188.4894939320861
 20
14.02010125116808
 30
0.0
 11
186.3218576257727
 21
15.27066065865696
 31
0.0
  0
ARC
  5
15D
102
{ACAD_REACTORS
330
163
102
}
330
154
100
AcDbEntity
  8
0
100
AcDbCircle
 10
188.3229197809228
 20
13.73137272248517
 30
0.0
 40
0.333333333333396
100
AcDbArc
 50
240.0183606311473
 51
60.01836063114733
  0
LINE
  5
15E
102
{ACAD_REACTORS
330
163
102
}
330
154
100
AcDbEntity
  8
0
100
AcDbLine
 10
185.9887104250881
 20
14.69320296572853
 30
0.0
 11
188.1563456297596
 21
13.44264419380229
 31
0.0
  0
ARC
  5
15F
102
{ACAD_REACTORS
330
163
102
}
330
154
100
AcDbEntity
  8
0
100
AcDbCircle
 10
186.3218598278342
 20
15.27066193048824
 30
0.0
 40
0.6666688687282916
100
AcDbArc
 50
180.0
 51
240.0183606311454
  0
LINE
  5
160
102
{ACAD_REACTORS
330
163
102
}
330
154
100
AcDbEntity
  8
0
100
AcDbLine
 10
185.6551909591059
 20
19.94397836659928
 30
0.0
 11
185.6551909591059
 21
15.27066193048824
 31
0.0
  0
ARC
  5
161
102
{ACAD_REACTORS
330
163
102
}
330
154
100
AcDbEntity
  8
0
100
AcDbCircle
 10
185.9885242924393
 20
19.94397836659928
 30
0.0
 40
0.333333333333396
100
AcDbArc
 50
0.0
 51
180.0
  0
LINE
  5
162
102
{ACAD_REACTORS
330
163
102
}
330
154
100
AcDbEntity
  8
0
100
AcDbLine
 10
186.3218576257727
 20
15.27066065865696
 30
0.0
 11
186.3218576257727
 21
19.94397836659928
 31
0.0
  0
HATCH
  5
163
330
154
100
AcDbEntity
  8
Schraffur
 62
     7
100
AcDbHatch
 10
0.0
 20
0.0
 30
0.0
210
0.0
220
0.0
230
1.0
  2
SOLID
 70
     1
 71
     1
 91
        1
 92
        1
 93
        7
 72
     1
 10
188.4894939320861
 20
14.02010125116808
 11
186.3218576257727
 21
15.27066065865696
 72
     1
 10
186.3218576257727
 20
15.27066065865696
 11
186.3218576257727
 21
19.94397836659928
 72
     2
 10
185.9885242924393
 20
19.94397836659928
 40
0.333333333333396
 50
0.0
 51
180.0
 73
     1
 72
     1
 10
185.6551909591059
 20
19.94397836659928
 11
185.6551909591059
 21
15.27066193048824
 72
     2
 10
186.3218598278342
 20
15.27066193048824
 40
0.6666688687282916
 50
180.0
 51
240.0183606311454
 73
     1
 72
     1
 10
185.9887104250881
 20
14.69320296572853
 11
188.1563456297596
 21
13.44264419380229
 72
     2
 10
188.3229197809228
 20
13.73137272248517
 40
0.333333333333396
 50
240.0183606311473
 51
420.0183606311473
 73
     1
 97
        7
330
15C
330
162
330
161
330
160
330
15F
330
15E
330
15D
 75
     0
 76
     1
 98
        1
 10
0.0
 20
0.0
  0
LINE
  5
164
102
{ACAD_REACTORS
330
171
102
}
330
154
100
AcDbEntity
  8
0
100
AcDbLine
 10
188.655189950303
 20
18.85482345606895
 30
0.0
 11
187.4829623801859
 21
20.88518116554469
 31
0.0
  0
LINE
  5
165
102
{ACAD_REACTORS
330
171
102
}
330
154
100
AcDbEntity
  8
0
100
AcDbLine
 10
189.82741752042
 20
20.88518116554469
 30
0.0
 11
188.655189950303
 21
18.85482345606895
 31
0.0
  0
ARC
  5
166
102
{ACAD_REACTORS
330
171
102
}
330
154
100
AcDbEntity
  8
0
100
AcDbCircle
 10
190.0568849915682
 20
20.75269805930704
 30
0.0
 40
0.2649662124752865
100
AcDbArc
 50
0.0
 51
149.9999999999939
  0
LINE
  5
167
102
{ACAD_REACTORS
330
171
102
}
330
154
100
AcDbEntity
  8
0
100
AcDbLine
 10
190.3218512040435
 20
14.28806850858179
 30
0.0
 11
190.3218512040435
 21
20.75269805930705
 31
0.0
  0
ARC
  5
168
102
{ACAD_REACTORS
330
171
102
}
330
154
100
AcDbEntity
  8
0
100
AcDbCircle
 10
189.98851787071
 20
14.28806850858179
 30
0.0
 40
0.3333333333334023
100
AcDbArc
 50
180.0
 51
0.0
  0
LINE
  5
169
102
{ACAD_REACTORS
330
171
102
}
330
154
100
AcDbEntity
  8
0
100
AcDbLine
 10
189.6551845373767
 20
19.25353601487275
 30
0.0
 11
189.6551845373766
 21
14.28806850858179
 31
0.0
  0
LINE
  5
16A
102
{ACAD_REACTORS
330
171
102
}
330
154
100
AcDbEntity
  8
0
100
AcDbLine
 10
188.7995275176003
 20
17.77149458276708
 30
0.0
 11
189.6551845373767
 21
19.25353601487275
 31
0.0
  0
ARC
  5
16B
102
{ACAD_REACTORS
330
171
102
}
330
154
100
AcDbEntity
  8
0
100
AcDbCircle
 10
188.655189950303
 20
17.85482791610036
 30
0.0
 40
0.1666666666665381
100
AcDbArc
 50
209.9999999999992
 51
330.0000000000008
  0
LINE
  5
16C
102
{ACAD_REACTORS
330
171
102
}
330
154
100
AcDbEntity
  8
0
100
AcDbLine
 10
187.6551953632293
 20
19.25353601487277
 30
0.0
 11
188.5108523830057
 21
17.77149458276708
 31
0.0
  0
LINE
  5
16D
102
{ACAD_REACTORS
330
171
102
}
330
154
100
AcDbEntity
  8
0
100
AcDbLine
 10
187.6551953632293
 20
15.84737070168959
 30
0.0
 11
187.6551953632293
 21
19.25353601487277
 31
0.0
  0
ARC
  5
16E
102
{ACAD_REACTORS
330
171
102
}
330
154
100
AcDbEntity
  8
0
100
AcDbCircle
 10
187.3218620298959
 20
15.84737070168959
 30
0.0
 40
0.333333333333396
100
AcDbArc
 50
180.0
 51
0.0
  0
LINE
  5
16F
102
{ACAD_REACTORS
330
171
102
}
330
154
100
AcDbEntity
  8
0
100
AcDbLine
 10
186.9885286965624
 20
20.75269805930705
 30
0.0
 11
186.9885286965624
 21
15.84737070168959
 31
0.0
  0
ARC
  5
170
102
{ACAD_REACTORS
330
171
102
}
330
154
100
AcDbEntity
  8
0
100
AcDbCircle
 10
187.2534949090378
 20
20.75269805930705
 30
0.0
 40
0.2649662124752854
100
AcDbArc
 50
29.9999999999981
 51
180.0
  0
HATCH
  5
171
330
154
100
AcDbEntity
  8
Schraffur
 62
     7
100
AcDbHatch
 10
0.0
 20
0.0
 30
0.0
210
0.0
220
0.0
230
1.0
  2
SOLID
 70
     1
 71
     1
 91
        1
 92
        1
 93
       13
 72
     1
 10
188.655189950303
 20
18.85482345606895
 11
187.4829623801859
 21
20.88518116554469
 72
     2
 10
187.2534949090378
 20
20.75269805930705
 40
0.2649662124752854
 50
29.9999999999981
 51
180.0
 73
     1
 72
     1
 10
186.9885286965624
 20
20.75269805930705
 11
186.9885286965624
 21
15.84737070168959
 72
     2
 10
187.3218620298959
 20
15.84737070168959
 40
0.333333333333396
 50
180.0
 51
360.0
 73
     1
 72
     1
 10
187.6551953632293
 20
15.84737070168959
 11
187.6551953632293
 21
19.25353601487277
 72
     1
 10
187.6551953632293
 20
19.25353601487277
 11
188.5108523830057
 21
17.77149458276708
 72
     2
 10
188.655189950303
 20
17.85482791610036
 40
0.1666666666665381
 50
209.9999999999992
 51
330.0000000000008
 73
     1
 72
     1
 10
188.7995275176003
 20
17.77149458276708
 11
189.6551845373767
 21
19.25353601487275
 72
     1
 10
189.6551845373767
 20
19.25353601487275
 11
189.6551845373766
 21
14.28806850858179
 72
     2
 10
189.98851787071
 20
14.28806850858179
 40
0.3333333333334023
 50
180.0
 51
360.0
 73
     1
 72
     1
 10
190.3218512040435
 20
14.28806850858179
 11
190.3218512040435
 21
20.75269805930705
 72
     2
 10
190.0568849915682
 20
20.75269805930704
 40
0.2649662124752865
 50
0.0
 51
149.9999999999939
 73
     1
 72
     1
 10
189.82741752042
 20
20.88518116554469
 11
188.655189950303
 21
18.85482345606894
 97
       13
330
164
330
170
330
16F
330
16E
330
16D
330
16C
330
16B
330
16A
330
169
330
168
330
167
330
166
330
165
 75
     0
 76
     1
 98
        1
 10
0.0
 20
0.0
  0
ARC
  5
172
102
{ACAD_REACTORS
330
180
102
}
330
154
100
AcDbEntity
  8
0
100
AcDbCircle
 10
192.6913083387628
 20
15.84737070168959
 30
10.0
 40
0.3333333333333919
100
AcDbArc
 50
299.9816393688529
 51
119.9816393688526
  0
LINE
  5
173
102
{ACAD_REACTORS
330
180
102
}
330
154
100
AcDbEntity
  8
0
100
AcDbLine
 10
191.6551889415001
 20
15.6344385114688
 30
10.0
 11
192.5247341875995
 21
16.13609923037247
 31
10.0
  0
LINE
  5
174
102
{ACAD_REACTORS
330
180
102
}
330
154
100
AcDbEntity
  8
0
100
AcDbLine
 10
191.6551889415001
 20
17.1673067592928
 30
10.0
 11
191.6551889415001
 21
15.6344385114688
 31
10.0
  0
LINE
  5
175
102
{ACAD_REACTORS
330
180
102
}
330
154
100
AcDbEntity
  8
0
100
AcDbLine
 10
192.6913083387628
 20
17.1673067592928
 30
10.0
 11
191.6551889415001
 21
17.1673067592928
 31
10.0
  0
ARC
  5
176
102
{ACAD_REACTORS
330
180
102
}
330
154
100
AcDbEntity
  8
0
100
AcDbCircle
 10
192.6913083387628
 20
17.5006400926262
 30
10.0
 40
0.333333333333396
100
AcDbArc
 50
270.0
 51
90.0
  0
LINE
  5
177
102
{ACAD_REACTORS
330
180
102
}
330
154
100
AcDbEntity
  8
0
100
AcDbLine
 10
191.6551889415001
 20
17.8339734259596
 30
10.0
 11
192.6913083387628
 21
17.8339734259596
 31
10.0
  0
LINE
  5
178
102
{ACAD_REACTORS
330
180
102
}
330
154
100
AcDbEntity
  8
0
100
AcDbLine
 10
191.6551889415001
 20
19.36684167378358
 30
10.0
 11
191.6551889415001
 21
17.8339734259596
 31
10.0
  0
LINE
  5
179
102
{ACAD_REACTORS
330
180
102
}
330
154
100
AcDbEntity
  8
0
100
AcDbLine
 10
192.5247341875995
 20
18.86518095487989
 30
10.0
 11
191.6551889415001
 21
19.36684167378358
 31
10.0
  0
ARC
  5
17A
102
{ACAD_REACTORS
330
180
102
}
330
154
100
AcDbEntity
  8
0
100
AcDbCircle
 10
192.6913083387628
 20
19.15390948356282
 30
10.0
 40
0.3333333333333963
100
AcDbArc
 50
240.0183606311407
 51
60.01835942372524
  0
LINE
  5
17B
102
{ACAD_REACTORS
330
180
102
}
330
154
100
AcDbEntity
  8
0
100
AcDbLine
 10
191.4884297593299
 20
20.23270689528218
 30
10.0
 11
192.857882489926
 21
19.44263801224573
 31
10.0
  0
ARC
  5
17C
102
{ACAD_REACTORS
330
180
102
}
330
154
100
AcDbEntity
  8
0
100
AcDbCircle
 10
191.3218556081666
 20
19.94397836659928
 30
10.0
 40
0.333333333333396
100
AcDbArc
 50
60.01836063114071
 51
180.0
  0
LINE
  5
17D
102
{ACAD_REACTORS
330
180
102
}
330
154
100
AcDbEntity
  8
0
100
AcDbLine
 10
190.9885222748332
 20
15.05730181865312
 30
10.0
 11
190.9885222748332
 21
19.94397836659928
 31
10.0
  0
ARC
  5
17E
102
{ACAD_REACTORS
330
180
102
}
330
154
100
AcDbEntity
  8
0
100
AcDbCircle
 10
191.3218556081666
 20
15.05730181865312
 30
10.0
 40
0.333333333333396
100
AcDbArc
 50
180.0
 51
299.9816393688593
  0
LINE
  5
17F
102
{ACAD_REACTORS
330
180
102
}
330
154
100
AcDbEntity
  8
0
100
AcDbLine
 10
192.857882489926
 20
15.55864217300668
 30
10.0
 11
191.4884297593299
 21
14.7685732899702
 31
10.0
  0
HATCH
  5
180
330
154
100
AcDbEntity
  8
Schraffur
 62
     7
100
AcDbHatch
 10
0.0
 20
0.0
 30
0.0
210
0.0
220
0.0
230
1.0
  2
SOLID
 70
     1
 71
     1
 91
        1
 92
        1
 93
       14
 72
     2
 10
192.6913083387628
 20
15.84737070168959
 40
0.3333333333333919
 50
299.9816393688529
 51
479.9816393688526
 73
     1
 72
     1
 10
192.5247341875995
 20
16.13609923037247
 11
191.6551889415001
 21
15.63443851146881
 72
     1
 10
191.6551889415001
 20
15.6344385114688
 11
191.6551889415001
 21
17.1673067592928
 72
     1
 10
191.6551889415001
 20
17.1673067592928
 11
192.6913083387628
 21
17.1673067592928
 72
     2
 10
192.6913083387628
 20
17.5006400926262
 40
0.333333333333396
 50
270.0
 51
450.0
 73
     1
 72
     1
 10
192.6913083387628
 20
17.8339734259596
 11
191.6551889415001
 21
17.8339734259596
 72
     1
 10
191.6551889415001
 20
17.8339734259596
 11
191.6551889415001
 21
19.36684167378358
 72
     1
 10
191.6551889415001
 20
19.36684167378358
 11
192.5247341875995
 21
18.86518095487989
 72
     2
 10
192.6913083387628
 20
19.15390948356282
 40
0.3333333333333963
 50
240.0183606311407
 51
420.0183594237252
 73
     1
 72
     1
 10
192.857882489926
 20
19.44263801224573
 11
191.4884297593299
 21
20.23270689528218
 72
     2
 10
191.3218556081666
 20
19.94397836659928
 40
0.333333333333396
 50
60.01836063114071
 51
180.0
 73
     1
 72
     1
 10
190.9885222748332
 20
19.94397836659928
 11
190.9885222748332
 21
15.05730181865312
 72
     2
 10
191.3218556081666
 20
15.05730181865312
 40
0.333333333333396
 50
180.0
 51
299.9816393688593
 73
     1
 72
     1
 10
191.4884297593299
 20
14.7685732899702
 11
192.857882489926
 21
15.55864217300668
 97
       14
330
172
330
173
330
174
330
175
330
176
330
177
330
178
330
179
330
17A
330
17B
330
17C
330
17D
330
17E
330
17F
 75
     0
 76
     1
 98
        1
 10
0.0
 20
0.0
  0
LINE
  5
181
330
154
100
AcDbEntity
  8
Skizziergeometrie(ISO)
100
AcDbLine
 10
19.98018995030303
 20
45.0006400926262
 30
0.0
 11
199.980189950303
 21
45.0006400926262
 31
0.0
  0
LINE
  5
182
330
154
100
AcDbEntity
  8
Skizziergeometrie(ISO)
100
AcDbLine
 10
19.98018995030303
 20
40.0006400926262
 30
0.0
 11
199.980189950303
 21
40.0006400926262
 31
0.0
  0
LINE
  5
183
330
154
100
AcDbEntity
  8
Skizziergeometrie(ISO)
100
AcDbLine
 10
19.98018995030303
 20
35.00064009262621
 30
0.0
 11
199.980189950303
 21
35.00064009262621
 31
0.0
  0
LINE
  5
184
330
154
100
AcDbEntity
  8
Skizziergeometrie(ISO)
100
AcDbLine
 10
19.98018995030303
 20
30.00064009262621
 30
0.0
 11
199.980189950303
 21
30.00064009262621
 31
0.0
  0
LINE
  5
185
330
154
100
AcDbEntity
  8
Skizziergeometrie(ISO)
100
AcDbLine
 10
19.98018995030303
 20
25.00064009262621
 30
0.0
 11
199.980189950303
 21
25.00064009262621
 31
0.0
  0
LINE
  5
186
330
154
100
AcDbEntity
  8
Skizziergeometrie(ISO)
100
AcDbLine
 10
19.98018995030303
 20
17.5006400926262
 30
0.0
 11
49.98018995030306
 21
17.5006400926262
 31
0.0
  0
LINE
  5
187
330
154
100
AcDbEntity
  8
Skizziergeometrie(ISO)
100
AcDbLine
 10
26.98018995030303
 20
45.0006400926262
 30
0.0
 11
26.98018995030303
 21
25.00064009262621
 31
0.0
  0
LINE
  5
188
330
154
100
AcDbEntity
  8
Skizziergeometrie(ISO)
100
AcDbLine
 10
44.98018995030303
 20
45.0006400926262
 30
0.0
 11
44.98018995030303
 21
25.00064009262621
 31
0.0
  0
LINE
  5
189
330
154
100
AcDbEntity
  8
Skizziergeometrie(ISO)
100
AcDbLine
 10
49.98018995030306
 20
10.0006400926262
 30
0.0
 11
49.98018995030306
 21
25.00064009262621
 31
0.0
  0
LINE
  5
18A
330
154
100
AcDbEntity
  8
Skizziergeometrie(ISO)
100
AcDbLine
 10
159.980189950303
 20
25.00064009262621
 30
0.0
 11
159.980189950303
 21
10.0006400926262
 31
0.0
  0
LINE
  5
18B
330
154
100
AcDbEntity
  8
Skizziergeometrie(ISO)
100
AcDbLine
 10
177.3301899503031
 20
25.0006400926262
 30
0.0
 11
177.3301899503031
 21
10.0006400926262
 31
0.0
  0
LINE
  5
18C
330
154
100
AcDbEntity
  8
Skizziergeometrie(ISO)
100
AcDbLine
 10
190.9885222748332
 20
15.05730181865312
 30
0.0
 11
190.9885222748332
 21
19.94397836659928
 31
0.0
  0
LINE
  5
18D
330
154
100
AcDbEntity
  8
Skizziergeometrie(ISO)
100
AcDbLine
 10
192.857882489926
 20
15.55864217300668
 30
0.0
 11
191.4884297593299
 21
14.7685732899702
 31
0.0
  0
LINE
  5
18E
330
154
100
AcDbEntity
  8
Skizziergeometrie(ISO)
100
AcDbLine
 10
191.6551889415001
 20
15.6344385114688
 30
0.0
 11
192.5247341875995
 21
16.13609923037247
 31
0.0
  0
LINE
  5
18F
330
154
100
AcDbEntity
  8
Skizziergeometrie(ISO)
100
AcDbLine
 10
191.6551889415001
 20
17.1673067592928
 30
0.0
 11
191.6551889415001
 21
15.6344385114688
 31
0.0
  0
LINE
  5
190
330
154
100
AcDbEntity
  8
Skizziergeometrie(ISO)
100
AcDbLine
 10
192.6913083387628
 20
17.1673067592928
 30
0.0
 11
191.6551889415001
 21
17.1673067592928
 31
0.0
  0
LINE
  5
191
330
154
100
AcDbEntity
  8
Skizziergeometrie(ISO)
100
AcDbLine
 10
191.6551889415001
 20
17.8339734259596
 30
0.0
 11
192.6913083387628
 21
17.8339734259596
 31
0.0
  0
LINE
  5
192
330
154
100
AcDbEntity
  8
Skizziergeometrie(ISO)
100
AcDbLine
 10
191.6551889415001
 20
19.36684167378358
 30
0.0
 11
191.6551889415001
 21
17.8339734259596
 31
0.0
  0
LINE
  5
193
330
154
100
AcDbEntity
  8
Skizziergeometrie(ISO)
100
AcDbLine
 10
192.5247341875995
 20
18.86518095487989
 30
0.0
 11
191.6551889415001
 21
19.36684167378358
 31
0.0
  0
LINE
  5
194
330
154
100
AcDbEntity
  8
Skizziergeometrie(ISO)
100
AcDbLine
 10
191.4884297593299
 20
20.23270689528218
 30
0.0
 11
192.857882489926
 21
19.44263801224573
 31
0.0
  0
LINE
  5
195
330
154
100
AcDbEntity
  8
Skizziergeometrie(ISO)
100
AcDbLine
 10
184.3218566169696
 20
15.84737070168959
 30
0.0
 11
184.3218566169696
 21
19.15390948356282
 31
0.0
  0
LINE
  5
196
330
154
100
AcDbEntity
  8
Skizziergeometrie(ISO)
100
AcDbLine
 10
184.9885232836365
 20
19.15390948356282
 30
0.0
 11
184.9885232836365
 21
15.84737070168959
 31
0.0
  0
LINE
  5
197
330
154
100
AcDbEntity
  8
Skizziergeometrie(ISO)
100
AcDbLine
 10
188.1563456297596
 20
13.44264419380229
 30
0.0
 11
185.9887104250881
 21
14.69320296572853
 31
0.0
  0
LINE
  5
198
330
154
100
AcDbEntity
  8
Skizziergeometrie(ISO)
100
AcDbLine
 10
186.3218576257727
 20
15.27066065865696
 30
0.0
 11
188.4894939320861
 21
14.02010125116808
 31
0.0
  0
LINE
  5
199
330
154
100
AcDbEntity
  8
Skizziergeometrie(ISO)
100
AcDbLine
 10
186.3218576257727
 20
19.94397836659928
 30
0.0
 11
186.3218576257727
 21
15.27066065865696
 31
0.0
  0
LINE
  5
19A
330
154
100
AcDbEntity
  8
Skizziergeometrie(ISO)
100
AcDbLine
 10
185.6551909591059
 20
15.27066193048824
 30
0.0
 11
185.6551909591059
 21
19.94397836659928
 31
0.0
  0
LINE
  5
19B
330
154
100
AcDbEntity
  8
Skizziergeometrie(ISO)
100
AcDbLine
 10
189.82741752042
 20
20.88518116554469
 30
0.0
 11
188.655189950303
 21
18.85482345606895
 31
0.0
  0
LINE
  5
19C
330
154
100
AcDbEntity
  8
Skizziergeometrie(ISO)
100
AcDbLine
 10
190.3218512040435
 20
14.28806850858179
 30
0.0
 11
190.3218512040435
 21
20.75269805930705
 31
0.0
  0
LINE
  5
19D
330
154
100
AcDbEntity
  8
Skizziergeometrie(ISO)
100
AcDbLine
 10
187.4829623801859
 20
20.88518116554469
 30
0.0
 11
188.655189950303
 21
18.85482345606895
 31
0.0
  0
LINE
  5
19E
330
154
100
AcDbEntity
  8
Skizziergeometrie(ISO)
100
AcDbLine
 10
186.9885286965624
 20
15.84737070168959
 30
0.0
 11
186.9885286965624
 21
20.75269805930705
 31
0.0
  0
LINE
  5
19F
330
154
100
AcDbEntity
  8
Skizziergeometrie(ISO)
100
AcDbLine
 10
188.655189950303
 20
12.50064009262539
 30
0.0
 11
180.2387546751623
 21
17.35627582828491
 31
0.0
  0
LINE
  5
1A0
330
154
100
AcDbEntity
  8
Skizziergeometrie(ISO)
100
AcDbLine
 10
197.0716252254436
 20
17.35627582828489
 30
0.0
 11
188.655189950303
 21
12.50064009262539
 31
0.0
  0
LINE
  5
1A1
330
154
100
AcDbEntity
  8
Skizziergeometrie(ISO)
100
AcDbLine
 10
188.655189950303
 20
22.50064009262702
 30
0.0
 11
197.0716252254436
 21
17.6450043569675
 31
0.0
  0
LINE
  5
1A2
330
154
100
AcDbEntity
  8
Skizziergeometrie(ISO)
100
AcDbLine
 10
180.2387546751623
 20
17.6450043569675
 30
0.0
 11
188.655189950303
 21
22.50064009262702
 31
0.0
  0
LINE
  5
1A3
330
154
100
AcDbEntity
  8
Skizziergeometrie(ISO)
100
AcDbLine
 10
187.6551953632293
 20
19.25353601487277
 30
0.0
 11
187.6551953632293
 21
15.84737070168959
 31
0.0
  0
LINE
  5
1A4
330
154
100
AcDbEntity
  8
Skizziergeometrie(ISO)
100
AcDbLine
 10
188.5108523830057
 20
17.77149458276708
 30
0.0
 11
187.6551953632293
 21
19.25353601487277
 31
0.0
  0
LINE
  5
1A5
330
154
100
AcDbEntity
  8
Skizziergeometrie(ISO)
100
AcDbLine
 10
189.6551845373767
 20
19.25353601487275
 30
0.0
 11
188.7995275176003
 21
17.77149458276708
 31
0.0
  0
LINE
  5
1A6
330
154
100
AcDbEntity
  8
Skizziergeometrie(ISO)
100
AcDbLine
 10
189.6551845373766
 20
14.28806850858179
 30
0.0
 11
189.6551845373767
 21
19.25353601487275
 31
0.0
  0
ARC
  5
1A7
330
154
100
AcDbEntity
  8
Skizziergeometrie(ISO)
100
AcDbCircle
 10
192.6913083387628
 20
15.84737070168959
 30
0.0
 40
0.3333333333333919
100
AcDbArc
 50
299.9816393688527
 51
119.98163936886
  0
ARC
  5
1A8
330
154
100
AcDbEntity
  8
Skizziergeometrie(ISO)
100
AcDbCircle
 10
192.6913083387628
 20
17.5006400926262
 30
0.0
 40
0.333333333333396
100
AcDbArc
 50
270.0
 51
90.0
  0
ARC
  5
1A9
330
154
100
AcDbEntity
  8
Skizziergeometrie(ISO)
100
AcDbCircle
 10
192.6913083387628
 20
19.15390948356282
 30
0.0
 40
0.3333333333333963
100
AcDbArc
 50
240.0183606311413
 51
60.01836063114108
  0
ARC
  5
1AA
330
154
100
AcDbEntity
  8
Skizziergeometrie(ISO)
100
AcDbCircle
 10
184.655189950303
 20
15.84737070168959
 30
0.0
 40
0.3333333333333997
100
AcDbArc
 50
180.0
 51
0.0
  0
ARC
  5
1AB
330
154
100
AcDbEntity
  8
Skizziergeometrie(ISO)
100
AcDbCircle
 10
184.655189950303
 20
19.15390948356282
 30
0.0
 40
0.3333333333333996
100
AcDbArc
 50
0.0
 51
180.0
  0
ARC
  5
1AC
330
154
100
AcDbEntity
  8
Skizziergeometrie(ISO)
100
AcDbCircle
 10
188.3229197809228
 20
13.73137272248517
 30
0.0
 40
0.333333333333396
100
AcDbArc
 50
240.0183606311468
 51
60.01836063114108
  0
ARC
  5
1AD
330
154
100
AcDbEntity
  8
Skizziergeometrie(ISO)
100
AcDbCircle
 10
185.9885242924393
 20
19.94397836659928
 30
0.0
 40
0.333333333333396
100
AcDbArc
 50
0.0
 51
180.0
  0
ARC
  5
1AE
330
154
100
AcDbEntity
  8
Skizziergeometrie(ISO)
100
AcDbCircle
 10
190.0568849915682
 20
20.75269805930704
 30
0.0
 40
0.2649662124752865
100
AcDbArc
 50
0.0
 51
149.9999999999956
  0
ARC
  5
1AF
330
154
100
AcDbEntity
  8
Skizziergeometrie(ISO)
100
AcDbCircle
 10
189.98851787071
 20
14.28806850858179
 30
0.0
 40
0.3333333333334023
100
AcDbArc
 50
180.0
 51
0.0
  0
ARC
  5
1B0
330
154
100
AcDbEntity
  8
Skizziergeometrie(ISO)
100
AcDbCircle
 10
187.3218620298959
 20
15.84737070168959
 30
0.0
 40
0.333333333333396
100
AcDbArc
 50
180.0
 51
0.0
  0
ARC
  5
1B1
330
154
100
AcDbEntity
  8
Skizziergeometrie(ISO)
100
AcDbCircle
 10
187.2534949090378
 20
20.75269805930705
 30
0.0
 40
0.2649662124752854
100
AcDbArc
 50
29.99999999999976
 51
180.0
  0
ARC
  5
1B2
330
154
100
AcDbEntity
  8
Skizziergeometrie(ISO)
100
AcDbCircle
 10
191.3218556081666
 20
15.05730181865312
 30
0.0
 40
0.333333333333396
100
AcDbArc
 50
180.0
 51
299.9816393688587
  0
ARC
  5
1B3
330
154
100
AcDbEntity
  8
Skizziergeometrie(ISO)
100
AcDbCircle
 10
191.3218556081666
 20
19.94397836659928
 30
0.0
 40
0.333333333333396
100
AcDbArc
 50
60.01836063114071
 51
180.0
  0
ARC
  5
1B4
330
154
100
AcDbEntity
  8
Skizziergeometrie(ISO)
100
AcDbCircle
 10
196.9883381498621
 20
17.5006400926262
 30
0.0
 40
0.1666666666665381
100
AcDbArc
 50
299.9816393688627
 51
60.01836063115012
  0
ARC
  5
1B5
330
154
100
AcDbEntity
  8
Skizziergeometrie(ISO)
100
AcDbCircle
 10
180.3220417507439
 20
17.5006400926262
 30
0.0
 40
0.1666666666665381
100
AcDbArc
 50
119.9816393688498
 51
240.0183606311497
  0
ARC
  5
1B6
330
154
100
AcDbEntity
  8
Skizziergeometrie(ISO)
100
AcDbCircle
 10
186.3218598278342
 20
15.27066193048824
 30
0.0
 40
0.6666688687282916
100
AcDbArc
 50
180.0
 51
240.0183606311453
  0
ARC
  5
1B7
330
154
100
AcDbEntity
  8
Skizziergeometrie(ISO)
100
AcDbCircle
 10
188.655189950303
 20
17.85482791610036
 30
0.0
 40
0.1666666666665381
100
AcDbArc
 50
209.9999999999999
 51
330.0000000000001
  0
LINE
  5
1B8
330
154
100
AcDbEntity
  8
Skizzierlinie(TC_020513_DIN)
100
AcDbLine
 10
20.98018995030303
 20
25.00064009262621
 30
0.0
 11
20.98018995030303
 21
17.5006400926262
 31
0.0
  0
LINE
  5
1B9
330
154
100
AcDbEntity
  8
Skizzierlinie(TC_020513_DIN)
100
AcDbLine
 10
20.98018995030303
 20
17.5006400926262
 30
0.0
 11
20.980189950303
 21
10.0006400926262
 31
0.0
  0
LINE
  5
1BA
330
154
100
AcDbEntity
  8
Skizzierlinie(TC_020513_DIN)
100
AcDbLine
 10
49.98018995030306
 20
25.00064009262621
 30
0.0
 11
29.98018995030301
 21
17.5006400926262
 31
0.0
  0
LINE
  5
1BB
330
154
100
AcDbEntity
  8
Skizzierlinie(TC_020513_DIN)
100
AcDbLine
 10
177.3301899503031
 20
25.0006400926262
 30
0.0
 11
159.980189950303
 21
20.0006400926262
 31
0.0
  0
LINE
  5
1BC
330
154
100
AcDbEntity
  8
Skizzierlinie(TC_020513_DIN)
100
AcDbLine
 10
159.980189950303
 20
20.0006400926262
 30
0.0
 11
177.3301899503031
 21
10.0006400926262
 31
0.0
  0
LINE
  5
1BD
330
154
100
AcDbEntity
  8
Skizziergeometrie(ISO)
100
AcDbLine
 10
19.98018995030303
 20
45.0006400926262
 30
0.0
 11
19.98018995030303
 21
10.0006400926262
 31
0.0
  0
LINE
  5
1BE
330
154
100
AcDbEntity
  8
Skizzierlinie(TC_020513_DIN)
100
AcDbLine
 10
50.98018995030301
 20
25.00064009262621
 30
0.0
 11
50.98018995030301
 21
17.5006400926262
 31
0.0
  0
LINE
  5
1BF
330
154
100
AcDbEntity
  8
Skizzierlinie(TC_020513_DIN)
100
AcDbLine
 10
50.98018995030301
 20
17.5006400926262
 30
0.0
 11
50.98018995030301
 21
10.0006400926262
 31
0.0
  0
MTEXT
  5
1C0
330
154
100
AcDbEntity
  8
Symbole(ISO)
 62
     7
100
AcDbMText
 10
20.98018995030303
 20
21.2506400926262
 30
0.0
 40
2.5
 41
8.997516465920178
 71
     4
 72
     1
  1
 Date
  7
TC 2_5 mm
 73
     1
 44
1.0
1001
ACAD
1000
MTEXTBEGIN
1070
    73
1070
     1
1070
    44
1040
1.0
1070
    74
1070
     0
1000
MTEXTEND
  0
MTEXT
  5
1C1
330
154
100
AcDbEntity
  8
Symbole(ISO)
 62
     7
100
AcDbMText
 10
20.980189950303
 20
13.7506400926262
 30
0.0
 40
2.5
 41
8.970966064125889
 71
     4
 72
     1
  1
 Sign.
  7
TC 2_5 mm
 73
     1
 44
1.0
1001
ACAD
1000
MTEXTBEGIN
1070
    73
1070
     1
1070
    44
1040
1.0
1070
    74
1070
     0
1000
MTEXTEND
  0
MTEXT
  5
1C2
330
154
100
AcDbEntity
  8
Symbole(ISO)
 62
     7
100
AcDbMText
 10
168.655189950303
 20
22.5006400926262
 30
0.0
 40
2.5
 41
17.34061856478945
 71
     5
 72
     1
  1
Scale
  7
TC 2_5 mm
 73
     1
 44
1.0
1001
ACAD
1000
MTEXTBEGIN
1070
    73
1070
     1
1070
    44
1040
1.0
1070
    74
1070
     0
1000
MTEXTEND
  0
MTEXT
  5
1C3
330
154
100
AcDbEntity
  8
Symbole(ISO)
 62
     7
100
AcDbMText
 10
39.98018995030301
 20
21.2506400926262
 30
0.0
 40
3.499999940395355
 41
20.95325017112982
 71
     5
 72
     1
  1
14.12.2006
  7
TC 3_5 mm
 73
     1
 44
1.0
1001
ACAD
1000
MTEXTBEGIN
1070
    73
1070
     1
1070
    44
1040
1.0
1070
    74
1070
     0
1000
MTEXTEND
  0
ATTDEF
  5
1C4
330
154
100
AcDbEntity
  8
Symbole(ISO)
 62
     7
100
AcDbText
 10
50.98018995030301
 20
11.75064006282388
 30
0.0
 40
4.000000059604644
  1
hood top entry PG16
 41
1.199999928474426
  7
Kopie von TC 5 mm
 11
50.98018995030301
 21
13.7506400926262
 31
0.0
100
AcDbAttributeDefinition
  3
BEZEICHNUNG
  2
BEZEICHNUNG
 70
     0
 74
     2
  0
ATTDEF
  5
1C5
330
154
100
AcDbEntity
  8
Symbole(ISO)
 62
     7
100
AcDbText
 10
164.2856470919772
 20
12.5006400926262
 30
0.0
 40
5.0
  1
1:1
 41
0.899999976158142
  7
TC 5 mm
 72
     1
 11
168.655189950303
 21
15.0006400926262
 31
0.0
100
AcDbAttributeDefinition
  3
FirstViewScale
  2
FirstViewScale
 70
     0
 74
     2
  0
ATTDEF
  5
1C6
330
154
100
AcDbEntity
  8
Symbole(ISO)
 62
     7
100
AcDbText
 10
50.98018995030301
 20
19.25064006282388
 30
0.0
 40
4.000000059604644
  1
CZAV 15 L16
 41
1.199999928474426
  7
Kopie von TC 5 mm
 11
50.98018995030301
 21
21.2506400926262
 31
0.0
100
AcDbAttributeDefinition
  3
BAUTEILNUMMER
  2
BAUTEILNUMMER
 70
     0
 74
     2
  0
ENDBLK
  5
156
330
154
100
AcDbEntity
  8
0
100
AcDbBlockEnd
  0
BLOCK
  5
39F
330
394
100
AcDbEntity
  8
0
100
AcDbBlockBegin
  2
*D11
 70
     1
 10
0.0
 20
0.0
 30
0.0
  3
*D11
  1

  0
LINE
  5
44A
330
394
100
AcDbEntity
  8
Bemaßungen(TC_020513_DIN)
  6
Continuous
 62
     7
370
    25
100
AcDbLine
 10
53.61277514707817
 20
89.39280618466007
 30
0.0
 11
53.61277514707817
 21
54.39280618466007
 31
0.0
  0
LINE
  5
44B
330
394
100
AcDbEntity
  8
Bemaßungen(TC_020513_DIN)
  6
Continuous
 62
     7
370
    25
100
AcDbLine
 10
125.6127751470782
 20
89.39280618466007
 30
0.0
 11
125.6127751470782
 21
54.39280618466007
 31
0.0
  0
LINE
  5
44C
330
394
100
AcDbEntity
  8
Bemaßungen(TC_020513_DIN)
  6
Continuous
 62
     7
370
    25
100
AcDbLine
 10
56.11277514707817
 20
56.39280618466006
 30
0.0
 11
123.1127751470782
 21
56.39280618466006
 31
0.0
  0
SOLID
  5
44D
330
394
100
AcDbEntity
  8
Bemaßungen(TC_020513_DIN)
  6
Continuous
 62
     7
100
AcDbTrace
 10
56.11277514707817
 20
56.80947285132673
 30
0.0
 11
56.11277514707817
 21
55.9761395179934
 31
0.0
 12
53.61277514707817
 22
56.39280618466006
 32
0.0
 13
53.61277514707817
 23
56.39280618466006
 33
0.0
  0
SOLID
  5
44E
330
394
100
AcDbEntity
  8
Bemaßungen(TC_020513_DIN)
  6
Continuous
 62
     7
100
AcDbTrace
 10
123.1127751470782
 20
56.80947285132673
 30
0.0
 11
123.1127751470782
 21
55.9761395179934
 31
0.0
 12
125.6127751470782
 22
56.39280618466006
 32
0.0
 13
125.6127751470782
 23
56.39280618466006
 33
0.0
  0
MTEXT
  5
44F
330
394
100
AcDbEntity
  8
Bemaßungen(TC_020513_DIN)
  6
Continuous
 62
     7
370
    25
100
AcDbMText
 10
87.13818442402224
 20
60.70713087770236
 30
0.0
 40
3.5
 41
0.0
 71
     1
 72
     1
  1
\A1;72
  7
Aktuell-BSI
 73
     1
 44
1.0
1001
ACAD
1000
MTEXTBEGIN
1070
    73
1070
     1
1070
    44
1040
1.0
1070
    74
1070
     0
1000
MTEXTEND
  0
POINT
  5
450
330
394
100
AcDbEntity
  8
Defpoints
  6
Continuous
 62
     0
100
AcDbPoint
 10
53.61277514707817
 20
90.39280618466007
 30
0.0
  0
POINT
  5
451
330
394
100
AcDbEntity
  8
Defpoints
  6
Continuous
 62
     0
100
AcDbPoint
 10
125.6127751470782
 20
90.39280618466007
 30
0.0
  0
POINT
  5
452
330
394
100
AcDbEntity
  8
Defpoints
  6
Continuous
 62
     0
100
AcDbPoint
 10
125.6127751470782
 20
56.39280618466006
 30
0.0
  0
ENDBLK
  5
3A0
330
394
100
AcDbEntity
  8
0
100
AcDbBlockEnd
  0
BLOCK
  5
45F
330
454
100
AcDbEntity
  8
0
100
AcDbBlockBegin
  2
*D12
 70
     1
 10
0.0
 20
0.0
 30
0.0
  3
*D12
  1

  0
LINE
  5
50F
330
454
100
AcDbEntity
  8
Bemaßungen(TC_020513_DIN)
  6
Continuous
 62
     7
370
    25
100
AcDbLine
 10
58.10777514707817
 20
83.39280618466009
 30
0.0
 11
58.10777514707817
 21
63.53504822197881
 31
0.0
  0
LINE
  5
510
330
454
100
AcDbEntity
  8
Bemaßungen(TC_020513_DIN)
  6
Continuous
 62
     7
370
    25
100
AcDbLine
 10
121.1177751470782
 20
83.39280618466009
 30
0.0
 11
121.1177751470782
 21
63.53504822197881
 31
0.0
  0
LINE
  5
511
330
454
100
AcDbEntity
  8
Bemaßungen(TC_020513_DIN)
  6
Continuous
 62
     7
370
    25
100
AcDbLine
 10
60.60777514707817
 20
65.53504822197881
 30
0.0
 11
118.6177751470782
 21
65.53504822197881
 31
0.0
  0
SOLID
  5
512
330
454
100
AcDbEntity
  8
Bemaßungen(TC_020513_DIN)
  6
Continuous
 62
     7
100
AcDbTrace
 10
60.60777514707817
 20
65.95171488864548
 30
0.0
 11
60.60777514707817
 21
65.11838155531214
 31
0.0
 12
58.10777514707817
 22
65.53504822197881
 32
0.0
 13
58.10777514707817
 23
65.53504822197881
 33
0.0
  0
SOLID
  5
513
330
454
100
AcDbEntity
  8
Bemaßungen(TC_020513_DIN)
  6
Continuous
 62
     7
100
AcDbTrace
 10
118.6177751470782
 20
65.95171488864548
 30
0.0
 11
118.6177751470782
 21
65.11838155531214
 31
0.0
 12
121.1177751470782
 22
65.53504822197881
 32
0.0
 13
121.1177751470782
 23
65.53504822197881
 33
0.0
  0
MTEXT
  5
514
330
454
100
AcDbEntity
  8
Bemaßungen(TC_020513_DIN)
  6
Continuous
 62
     7
370
    25
100
AcDbMText
 10
87.09640406931557
 20
69.91144658487105
 30
0.0
 40
3.5
 41
0.0
 71
     1
 72
     1
  1
\A1;63
  7
Aktuell-BSI
 73
     1
 44
1.0
1001
ACAD
1000
MTEXTBEGIN
1070
    73
1070
     1
1070
    44
1040
1.0
1070
    74
1070
     0
1000
MTEXTEND
  0
POINT
  5
515
330
454
100
AcDbEntity
  8
Defpoints
  6
Continuous
 62
     0
100
AcDbPoint
 10
58.10777514707817
 20
84.39280618466009
 30
0.0
  0
POINT
  5
516
330
454
100
AcDbEntity
  8
Defpoints
  6
Continuous
 62
     0
100
AcDbPoint
 10
121.1177751470782
 20
84.39280618466009
 30
0.0
  0
POINT
  5
517
330
454
100
AcDbEntity
  8
Defpoints
  6
Continuous
 62
     0
100
AcDbPoint
 10
121.1177751470782
 20
65.53504822197881
 30
0.0
  0
ENDBLK
  5
460
330
454
100
AcDbEntity
  8
0
100
AcDbBlockEnd
  0
BLOCK
  5
524
330
519
100
AcDbEntity
  8
0
100
AcDbBlockBegin
  2
*D13
 70
     1
 10
0.0
 20
0.0
 30
0.0
  3
*D13
  1

  0
LINE
  5
5D4
330
519
100
AcDbEntity
  8
Bemaßungen(TC_020513_DIN)
  6
Continuous
 62
     7
370
    25
100
AcDbLine
 10
191.5030623226855
 20
83.39280618466009
 30
0.0
 11
191.5030623226855
 21
63.53504822197881
 31
0.0
  0
LINE
  5
5D5
330
519
100
AcDbEntity
  8
Bemaßungen(TC_020513_DIN)
  6
Continuous
 62
     7
370
    25
100
AcDbLine
 10
220.9130623226855
 20
81.89280618466009
 30
0.0
 11
220.9130623226855
 21
63.53504822197881
 31
0.0
  0
LINE
  5
5D6
330
519
100
AcDbEntity
  8
Bemaßungen(TC_020513_DIN)
  6
Continuous
 62
     7
370
    25
100
AcDbLine
 10
194.0030623226855
 20
65.53504822197881
 30
0.0
 11
218.4130623226856
 21
65.53504822197881
 31
0.0
  0
SOLID
  5
5D7
330
519
100
AcDbEntity
  8
Bemaßungen(TC_020513_DIN)
  6
Continuous
 62
     7
100
AcDbTrace
 10
194.0030623226855
 20
65.95171488864548
 30
0.0
 11
194.0030623226855
 21
65.11838155531214
 31
0.0
 12
191.5030623226855
 22
65.53504822197881
 32
0.0
 13
191.5030623226855
 23
65.53504822197881
 33
0.0
  0
SOLID
  5
5D8
330
519
100
AcDbEntity
  8
Bemaßungen(TC_020513_DIN)
  6
Continuous
 62
     7
100
AcDbTrace
 10
218.4130623226856
 20
65.95171488864548
 30
0.0
 11
218.4130623226856
 21
65.11838155531214
 31
0.0
 12
220.9130623226855
 22
65.53504822197881
 32
0.0
 13
220.9130623226855
 23
65.53504822197881
 33
0.0
  0
MTEXT
  5
5D9
330
519
100
AcDbEntity
  8
Bemaßungen(TC_020513_DIN)
  6
Continuous
 62
     7
370
    25
100
AcDbMText
 10
201.6396789666146
 20
70.54173307873188
 30
0.0
 40
3.5
 41
0.0
 71
     1
 72
     1
  1
\A1;29,4
  7
Aktuell-BSI
 73
     1
 44
1.0
1001
ACAD
1000
MTEXTBEGIN
1070
    73
1070
     1
1070
    44
1040
1.0
1070
    74
1070
     0
1000
MTEXTEND
  0
POINT
  5
5DA
330
519
100
AcDbEntity
  8
Defpoints
  6
Continuous
 62
     0
100
AcDbPoint
 10
191.5030623226855
 20
84.39280618466009
 30
0.0
  0
POINT
  5
5DB
330
519
100
AcDbEntity
  8
Defpoints
  6
Continuous
 62
     0
100
AcDbPoint
 10
220.9130623226855
 20
82.89280618466008
 30
0.0
  0
POINT
  5
5DC
330
519
100
AcDbEntity
  8
Defpoints
  6
Continuous
 62
     0
100
AcDbPoint
 10
220.9130623226855
 20
65.53504822197881
 30
0.0
  0
ENDBLK
  5
525
330
519
100
AcDbEntity
  8
0
100
AcDbBlockEnd
  0
BLOCK
  5
5E9
330
5DE
100
AcDbEntity
  8
0
100
AcDbBlockBegin
  2
*D14
 70
     1
 10
0.0
 20
0.0
 30
0.0
  3
*D14
  1

  0
LINE
  5
699
330
5DE
100
AcDbEntity
  8
Bemaßungen(TC_020513_DIN)
  6
Continuous
 62
     7
370
    25
100
AcDbLine
 10
188.2080623226849
 20
114.5178061846601
 30
0.0
 11
188.2080623226849
 21
54.39280618466007
 31
0.0
  0
LINE
  5
69A
330
5DE
100
AcDbEntity
  8
Bemaßungen(TC_020513_DIN)
  6
Continuous
 62
     7
370
    25
100
AcDbLine
 10
224.2080623226849
 20
114.5178061846601
 30
0.0
 11
224.2080623226849
 21
54.39280618466007
 31
0.0
  0
LINE
  5
69B
330
5DE
100
AcDbEntity
  8
Bemaßungen(TC_020513_DIN)
  6
Continuous
 62
     7
370
    25
100
AcDbLine
 10
190.7080623226849
 20
56.39280618466006
 30
0.0
 11
221.7080623226849
 21
56.39280618466006
 31
0.0
  0
SOLID
  5
69C
330
5DE
100
AcDbEntity
  8
Bemaßungen(TC_020513_DIN)
  6
Continuous
 62
     7
100
AcDbTrace
 10
190.7080623226849
 20
56.80947285132673
 30
0.0
 11
190.7080623226849
 21
55.9761395179934
 31
0.0
 12
188.2080623226849
 22
56.39280618466006
 32
0.0
 13
188.2080623226849
 23
56.39280618466006
 33
0.0
  0
SOLID
  5
69D
330
5DE
100
AcDbEntity
  8
Bemaßungen(TC_020513_DIN)
  6
Continuous
 62
     7
100
AcDbTrace
 10
221.7080623226849
 20
56.80947285132673
 30
0.0
 11
221.7080623226849
 21
55.9761395179934
 31
0.0
 12
224.2080623226849
 22
56.39280618466006
 32
0.0
 13
224.2080623226849
 23
56.39280618466006
 33
0.0
  0
MTEXT
  5
69E
330
5DE
100
AcDbEntity
  8
Bemaßungen(TC_020513_DIN)
  6
Continuous
 62
     7
370
    25
100
AcDbMText
 10
203.7036284891242
 20
60.76920454755229
 30
0.0
 40
3.5
 41
0.0
 71
     1
 72
     1
  1
\A1;36
  7
Aktuell-BSI
 73
     1
 44
1.0
1001
ACAD
1000
MTEXTBEGIN
1070
    73
1070
     1
1070
    44
1040
1.0
1070
    74
1070
     0
1000
MTEXTEND
  0
POINT
  5
69F
330
5DE
100
AcDbEntity
  8
Defpoints
  6
Continuous
 62
     0
100
AcDbPoint
 10
188.2080623226849
 20
115.5178061846601
 30
0.0
  0
POINT
  5
6A0
330
5DE
100
AcDbEntity
  8
Defpoints
  6
Continuous
 62
     0
100
AcDbPoint
 10
224.2080623226849
 20
115.5178061846601
 30
0.0
  0
POINT
  5
6A1
330
5DE
100
AcDbEntity
  8
Defpoints
  6
Continuous
 62
     0
100
AcDbPoint
 10
224.2080623226849
 20
56.39280618466006
 30
0.0
  0
ENDBLK
  5
5EA
330
5DE
100
AcDbEntity
  8
0
100
AcDbBlockEnd
  0
BLOCK
  5
6AE
330
6A3
100
AcDbEntity
  8
0
100
AcDbBlockBegin
  2
*D15
 70
     1
 10
0.0
 20
0.0
 30
0.0
  3
*D15
  1

  0
LINE
  5
75E
330
6A3
100
AcDbEntity
  8
Bemaßungen(TC_020513_DIN)
  6
Continuous
 62
     7
370
    25
100
AcDbLine
 10
224.2080623226872
 20
147.3928061846601
 30
0.0
 11
246.9130623226844
 21
147.3928061846601
 31
0.0
  0
LINE
  5
75F
330
6A3
100
AcDbEntity
  8
Bemaßungen(TC_020513_DIN)
  6
Continuous
 62
     7
370
    25
100
AcDbLine
 10
217.9130623226843
 20
82.89280618466008
 30
0.0
 11
246.9130623226844
 21
82.89280618466007
 31
0.0
  0
LINE
  5
760
330
6A3
100
AcDbEntity
  8
Bemaßungen(TC_020513_DIN)
  6
Continuous
 62
     7
370
    25
100
AcDbLine
 10
244.9130623226844
 20
144.8928061846601
 30
0.0
 11
244.9130623226844
 21
85.39280618466007
 31
0.0
  0
SOLID
  5
761
330
6A3
100
AcDbEntity
  8
Bemaßungen(TC_020513_DIN)
  6
Continuous
 62
     7
100
AcDbTrace
 10
244.4963956560177
 20
144.8928061846601
 30
0.0
 11
245.3297289893511
 21
144.8928061846601
 31
0.0
 12
244.9130623226844
 22
147.3928061846601
 32
0.0
 13
244.9130623226844
 23
147.3928061846601
 33
0.0
  0
SOLID
  5
762
330
6A3
100
AcDbEntity
  8
Bemaßungen(TC_020513_DIN)
  6
Continuous
 62
     7
100
AcDbTrace
 10
244.4963956560177
 20
85.39280618466007
 30
0.0
 11
245.3297289893511
 21
85.39280618466007
 31
0.0
 12
244.9130623226844
 22
82.89280618466007
 32
0.0
 13
244.9130623226844
 23
82.89280618466007
 33
0.0
  0
MTEXT
  5
763
330
6A3
100
AcDbEntity
  8
Bemaßungen(TC_020513_DIN)
  6
Continuous
 62
     7
370
    25
100
AcDbMText
 10
239.9063774659313
 20
110.5744228285891
 30
0.0
 40
3.5
 41
0.0
 71
     1
 72
     1
  1
\A1;64,5
  7
Aktuell-BSI
 11
0.0000000000000001
 21
1.0
 31
0.0
 73
     1
 44
1.0
1001
ACAD
1000
MTEXTBEGIN
1070
    73
1070
     1
1070
    44
1040
1.0
1070
    74
1070
     0
1000
MTEXTEND
  0
POINT
  5
764
330
6A3
100
AcDbEntity
  8
Defpoints
  6
Continuous
 62
     0
100
AcDbPoint
 10
223.2080623226873
 20
147.3928061846601
 30
0.0
  0
POINT
  5
765
330
6A3
100
AcDbEntity
  8
Defpoints
  6
Continuous
 62
     0
100
AcDbPoint
 10
216.9130623226843
 20
82.89280618466008
 30
0.0
  0
POINT
  5
766
330
6A3
100
AcDbEntity
  8
Defpoints
  6
Continuous
 62
     0
100
AcDbPoint
 10
244.9130623226844
 20
82.89280618466007
 30
0.0
  0
ENDBLK
  5
6AF
330
6A3
100
AcDbEntity
  8
0
100
AcDbBlockEnd
  0
BLOCK
  5
773
330
768
100
AcDbEntity
  8
0
100
AcDbBlockBegin
  2
*D16
 70
     1
 10
0.0
 20
0.0
 30
0.0
  3
*D16
  1

  0
LINE
  5
823
330
768
100
AcDbEntity
  8
Bemaßungen(TC_020513_DIN)
  6
Continuous
 62
     7
370
    25
100
AcDbLine
 10
219.2080623226937
 20
161.8928061846601
 30
0.0
 11
247.2080623226873
 21
161.8928061846601
 31
0.0
  0
LINE
  5
824
330
768
100
AcDbEntity
  8
Bemaßungen(TC_020513_DIN)
  6
Continuous
 62
     7
370
    25
100
AcDbLine
 10
224.2080623226872
 20
147.3928061846601
 30
0.0
 11
247.2080623226873
 21
147.3928061846601
 31
0.0
  0
LINE
  5
825
330
768
100
AcDbEntity
  8
Bemaßungen(TC_020513_DIN)
  6
Continuous
 62
     7
370
    25
100
AcDbLine
 10
245.2080623226873
 20
159.3928061846601
 30
0.0
 11
245.2080623226873
 21
149.8928061846601
 31
0.0
  0
SOLID
  5
826
330
768
100
AcDbEntity
  8
Bemaßungen(TC_020513_DIN)
  6
Continuous
 62
     7
100
AcDbTrace
 10
244.7913956560206
 20
159.3928061846601
 30
0.0
 11
245.6247289893539
 21
159.3928061846601
 31
0.0
 12
245.2080623226873
 22
161.8928061846601
 32
0.0
 13
245.2080623226873
 23
161.8928061846601
 33
0.0
  0
SOLID
  5
827
330
768
100
AcDbEntity
  8
Bemaßungen(TC_020513_DIN)
  6
Continuous
 62
     7
100
AcDbTrace
 10
244.7913956560206
 20
149.8928061846601
 30
0.0
 11
245.6247289893539
 21
149.8928061846601
 31
0.0
 12
245.2080623226873
 22
147.3928061846601
 32
0.0
 13
245.2080623226873
 23
147.3928061846601
 33
0.0
  0
MTEXT
  5
828
330
768
100
AcDbEntity
  8
Bemaßungen(TC_020513_DIN)
  6
Continuous
 62
     7
370
    25
100
AcDbMText
 10
240.2013774659342
 20
150.248706593937
 30
0.0
 40
3.5
 41
0.0
 71
     1
 72
     1
  1
\A1;14,5
  7
Aktuell-BSI
 11
0.0000000000000001
 21
1.0
 31
0.0
 73
     1
 44
1.0
1001
ACAD
1000
MTEXTBEGIN
1070
    73
1070
     1
1070
    44
1040
1.0
1070
    74
1070
     0
1000
MTEXTEND
  0
POINT
  5
829
330
768
100
AcDbEntity
  8
Defpoints
  6
Continuous
 62
     0
100
AcDbPoint
 10
218.2080623226937
 20
161.8928061846601
 30
0.0
  0
POINT
  5
82A
330
768
100
AcDbEntity
  8
Defpoints
  6
Continuous
 62
     0
100
AcDbPoint
 10
223.2080623226873
 20
147.3928061846601
 30
0.0
  0
POINT
  5
82B
330
768
100
AcDbEntity
  8
Defpoints
  6
Continuous
 62
     0
100
AcDbPoint
 10
245.2080623226873
 20
147.3928061846601
 30
0.0
  0
ENDBLK
  5
774
330
768
100
AcDbEntity
  8
0
100
AcDbBlockEnd
  0
BLOCK
  5
83E
330
833
100
AcDbEntity
  8
0
100
AcDbBlockBegin
  2
*D17
 70
     1
 10
0.0
 20
0.0
 30
0.0
  3
*D17
  1

  0
LINE
  5
8EE
330
833
100
AcDbEntity
  8
Bemaßungen(TC_020513_DIN)
  6
Continuous
 62
     7
370
    25
100
AcDbLine
 10
79.03277514707818
 20
157.3350206231713
 30
0.0
 11
79.03277514707818
 21
172.9605838507974
 31
0.0
  0
LINE
  5
8EF
330
833
100
AcDbEntity
  8
Bemaßungen(TC_020513_DIN)
  6
Continuous
 62
     7
370
    25
100
AcDbLine
 10
100.1927751470782
 20
162.8928061846601
 30
0.0
 11
100.1927751470782
 21
172.9605838507974
 31
0.0
  0
LINE
  5
8F0
330
833
100
AcDbEntity
  8
Bemaßungen(TC_020513_DIN)
  6
Continuous
 62
     7
370
    25
100
AcDbLine
 10
81.53277514707818
 20
170.9605838507974
 30
0.0
 11
97.69277514707818
 21
170.9605838507974
 31
0.0
  0
SOLID
  5
8F1
330
833
100
AcDbEntity
  8
Bemaßungen(TC_020513_DIN)
  6
Continuous
 62
     7
100
AcDbTrace
 10
81.53277514707818
 20
171.3772505174641
 30
0.0
 11
81.53277514707818
 21
170.5439171841308
 31
0.0
 12
79.03277514707818
 22
170.9605838507974
 32
0.0
 13
79.03277514707818
 23
170.9605838507974
 33
0.0
  0
SOLID
  5
8F2
330
833
100
AcDbEntity
  8
Bemaßungen(TC_020513_DIN)
  6
Continuous
 62
     7
100
AcDbTrace
 10
97.69277514707818
 20
171.3772505174641
 30
0.0
 11
97.69277514707818
 21
170.5439171841308
 31
0.0
 12
100.1927751470782
 22
170.9605838507974
 32
0.0
 13
100.1927751470782
 23
170.9605838507974
 33
0.0
  0
MTEXT
  5
8F3
330
833
100
AcDbEntity
  8
Bemaßungen(TC_020513_DIN)
  6
Continuous
 62
     7
370
    25
100
AcDbMText
 10
82.98282971733739
 20
175.3799562928165
 30
0.0
 40
3.5
 41
0.0
 71
     1
 72
     1
  1
\A1; PG16
  7
Aktuell-BSI
 73
     1
 44
1.0
1001
ACAD
1000
MTEXTBEGIN
1070
    73
1070
     1
1070
    44
1040
1.0
1070
    74
1070
     0
1000
MTEXTEND
  0
POINT
  5
8F4
330
833
100
AcDbEntity
  8
Defpoints
  6
Continuous
 62
     0
100
AcDbPoint
 10
79.03277514707818
 20
156.3350206231713
 30
0.0
  0
POINT
  5
8F5
330
833
100
AcDbEntity
  8
Defpoints
  6
Continuous
 62
     0
100
AcDbPoint
 10
100.1927751470782
 20
161.8928061846601
 30
0.0
  0
POINT
  5
8F6
330
833
100
AcDbEntity
  8
Defpoints
  6
Continuous
 62
     0
100
AcDbPoint
 10
100.1927751470782
 20
170.9605838507974
 30
0.0
  0
ENDBLK
  5
83F
330
833
100
AcDbEntity
  8
0
100
AcDbBlockEnd
  0
ENDSEC
  0
SECTION
  2
ENTITIES
  0
INSERT
  5
153
330
37
100
AcDbEntity
  8
0
100
AcDbBlockReference
  2
Ränder Ilme Rahmen A4 quer
 10
0.0
 20
0.0
 30
0.0
  0
INSERT
  5
1C7
330
37
100
AcDbEntity
  8
0
100
AcDbBlockReference
 66
     1
  2
Schriftfelder Ilme
 10
87.01981004969702
 20
-0.0006400926262484
 30
0.0
  0
ATTRIB
  5
1C9
330
1C7
100
AcDbEntity
  8
Symbole(ISO)
 62
     7
100
AcDbText
 10
138.0
 20
11.74999997019763
 30
0.0
 40
4.000000059604644
  1
hood top entry PG16
 41
1.199999928474426
  7
Kopie von TC 5 mm
 11
138.0
 21
13.74999999999995
 31
0.0
100
AcDbAttribute
  2
BEZEICHNUNG
 70
     0
 74
     2
  0
ATTRIB
  5
1CA
330
1C7
100
AcDbEntity
  8
Symbole(ISO)
 62
     7
100
AcDbText
 10
251.3054571416743
 20
12.49999999999995
 30
0.0
 40
5.0
  1
1:1
 41
0.899999976158142
  7
TC 5 mm
 72
     1
 11
255.675
 21
14.99999999999995
 31
0.0
100
AcDbAttribute
  2
FirstViewScale
 70
     0
 74
     2
  0
ATTRIB
  5
1CB
330
1C7
100
AcDbEntity
  8
Symbole(ISO)
 62
     7
100
AcDbText
 10
138.0
 20
19.24999997019763
 30
0.0
 40
4.000000059604644
  1
CZAV 15 L16
 41
1.199999928474426
  7
Kopie von TC 5 mm
 11
138.0
 21
21.24999999999996
 31
0.0
100
AcDbAttribute
  2
BAUTEILNUMMER
 70
     0
 74
     2
  0
SEQEND
  5
1C8
330
1C7
100
AcDbEntity
  8
0
  0
LINE
  5
1CC
330
37
100
AcDbEntity
  8
Sichtbare Kanten(TC_020513_DIN)
100
AcDbLine
 10
101.6127751470782
 20
161.8928061846601
 30
0.0
 11
77.6127751470782
 21
161.8928061846601
 31
0.0
  0
LINE
  5
1CD
330
37
100
AcDbEntity
  8
Sichtbare Kanten(TC_020513_DIN)
100
AcDbLine
 10
77.6127751470782
 20
147.3928061846601
 30
0.0
 11
77.6127751470782
 21
161.8928061846601
 31
0.0
  0
LINE
  5
1CE
330
37
100
AcDbEntity
  8
Sichtbare Kanten(TC_020513_DIN)
100
AcDbLine
 10
101.6127751470782
 20
147.3928061846601
 30
0.0
 11
101.6127751470782
 21
161.8928061846601
 31
0.0
  0
ARC
  5
1CF
330
37
100
AcDbEntity
  8
Sichtbare Kanten(TC_020513_DIN)
100
AcDbCircle
 10
60.11277514707831
 20
112.6362299686569
 30
0.0
 40
2.000000000000148
100
AcDbArc
 50
165.3791260113688
 51
180.0
  0
LINE
  5
1D0
330
37
100
AcDbEntity
  8
Sichtbare Kanten(TC_020513_DIN)
100
AcDbLine
 10
58.17754060228448
 20
113.1410737629509
 30
0.0
 11
58.43949390285565
 21
114.145228081807
 31
0.0
  0
ARC
  5
1D1
330
37
100
AcDbEntity
  8
Sichtbare Kanten(TC_020513_DIN)
100
AcDbCircle
 10
119.1127751470781
 20
112.6362299686569
 30
0.0
 40
2.000000000000077
100
AcDbArc
 50
0.0
 51
14.62087398863169
  0
LINE
  5
1D2
330
37
100
AcDbEntity
  8
Sichtbare Kanten(TC_020513_DIN)
100
AcDbLine
 10
120.7860563913007
 20
114.145228081807
 30
0.0
 11
121.0480096918718
 21
113.1410737629509
 31
0.0
  0
LINE
  5
1D3
330
37
100
AcDbEntity
  8
Sichtbare Kanten(TC_020513_DIN)
100
AcDbLine
 10
59.17926427788877
 20
116.981014519434
 30
0.0
 11
58.43949390285565
 21
114.145228081807
 31
0.0
  0
LINE
  5
1D4
330
37
100
AcDbEntity
  8
Sichtbare Kanten(TC_020513_DIN)
100
AcDbLine
 10
59.44013384310616
 20
117.981014519434
 30
0.0
 11
59.17926427788877
 21
116.981014519434
 31
0.0
  0
LINE
  5
1D5
330
37
100
AcDbEntity
  8
Sichtbare Kanten(TC_020513_DIN)
100
AcDbLine
 10
65.91711483217038
 20
142.8094416441801
 30
0.0
 11
59.44013384310616
 21
117.981014519434
 31
0.0
  0
LINE
  5
1D6
330
37
100
AcDbEntity
  8
Sichtbare Kanten(TC_020513_DIN)
100
AcDbLine
 10
66.17798439738777
 20
143.8094416441802
 30
0.0
 11
65.91711483217038
 21
142.8094416441801
 31
0.0
  0
LINE
  5
1D7
330
37
100
AcDbEntity
  8
Sichtbare Kanten(TC_020513_DIN)
100
AcDbLine
 10
66.91775477242088
 20
146.6452280818071
 30
0.0
 11
66.17798439738777
 21
143.8094416441802
 31
0.0
  0
ARC
  5
1D8
330
37
100
AcDbEntity
  8
Sichtbare Kanten(TC_020513_DIN)
100
AcDbCircle
 10
59.40711117525251
 20
113.8928061846601
 30
0.0
 40
1.00000000000001
100
AcDbArc
 50
165.3791260113689
 51
269.9999999999995
  0
ARC
  5
1D9
330
37
100
AcDbEntity
  8
Sichtbare Kanten(TC_020513_DIN)
100
AcDbCircle
 10
119.8184391189038
 20
113.8928061846601
 30
0.0
 40
1.0
100
AcDbArc
 50
270.0
 51
14.62087398863116
  0
LINE
  5
1DA
330
37
100
AcDbEntity
  8
Sichtbare Kanten(TC_020513_DIN)
100
AcDbLine
 10
120.7860563913007
 20
114.1452280818071
 30
0.0
 11
120.0462860162676
 21
116.981014519434
 31
0.0
  0
ELLIPSE
  5
1DB
330
37
100
AcDbEntity
  8
Sichtbare Kanten(TC_020513_DIN)
100
AcDbEllipse
 10
119.0786687438707
 20
116.728592622287
 30
0.0
 11
-0.9676172723968438
 21
-0.2524218971470028
 31
0.0
210
0.0
220
0.0
230
0.9999999999999998
 40
0.4046061812640326
 41
3.141592653589659
 42
4.532938164433328
  0
ELLIPSE
  5
1DC
330
37
100
AcDbEntity
  8
Sichtbare Kanten(TC_020513_DIN)
100
AcDbEllipse
 10
118.7097434667299
 20
118.1428061846601
 30
0.0
 11
-0.9152337826560536
 21
0.7071067811866584
 31
0.0
210
0.0
220
0.0
230
1.0
 40
0.7725968977395399
 41
2.356194490192532
 42
2.535645306143919
  0
ELLIPSE
  5
1DD
330
37
100
AcDbEntity
  8
Sichtbare Kanten(TC_020513_DIN)
100
AcDbEllipse
 10
60.407751115503
 20
117.728592622287
 30
0.0
 11
-0.9676172723968415
 21
0.2524218971470132
 31
0.0
210
0.0
220
0.0
230
1.0
 40
0.4046061812640419
 41
4.891839796336046
 42
6.283185307179655
  0
ELLIPSE
  5
1DE
330
37
100
AcDbEntity
  8
Sichtbare Kanten(TC_020513_DIN)
100
AcDbEllipse
 10
60.14688155028562
 20
116.728592622287
 30
0.0
 11
0.9676172723968413
 21
-0.2524218971470131
 31
0.0
210
0.0
220
0.0
230
1.0
 40
0.4046061812640428
 41
1.750247142746255
 42
3.141592653589862
  0
LINE
  5
1DF
330
37
100
AcDbEntity
  8
Sichtbare Kanten(TC_020513_DIN)
100
AcDbLine
 10
120.0462860162676
 20
116.981014519434
 30
0.0
 11
119.7854164510502
 21
117.981014519434
 31
0.0
  0
ELLIPSE
  5
1E0
330
37
100
AcDbEntity
  8
Sichtbare Kanten(TC_020513_DIN)
100
AcDbEllipse
 10
118.8177991786534
 20
117.728592622287
 30
0.0
 11
0.9676172723968436
 21
0.2524218971470027
 31
0.0
210
0.0
220
0.0
230
0.9999999999999998
 40
0.4046061812640361
 41
0.0
 42
1.391345510843519
  0
ELLIPSE
  5
1E1
330
37
100
AcDbEntity
  8
Sichtbare Kanten(TC_020513_DIN)
100
AcDbEllipse
 10
66.88473210456722
 20
142.5570197470331
 30
0.0
 11
-0.9676172723968441
 21
0.252421897147003
 31
0.0
210
0.0
220
0.0
230
0.9999999999999998
 40
0.4046061812640531
 41
0.0
 42
1.570796326794878
  0
ELLIPSE
  5
1E2
330
37
100
AcDbEntity
  8
Sichtbare Kanten(TC_020513_DIN)
100
AcDbEllipse
 10
60.7766763926438
 20
119.1428061846601
 30
0.0
 11
0.915233782656054
 21
0.7071067811866576
 31
0.0
210
0.0
220
0.0
230
1.0
 40
0.7725968977395404
 41
3.747540001035673
 42
3.926990816987055
  0
ELLIPSE
  5
1E3
330
37
100
AcDbEntity
  8
Sichtbare Kanten(TC_020513_DIN)
100
AcDbEllipse
 10
118.4488739015125
 20
119.1428061846601
 30
0.0
 11
0.9152337826561108
 21
-0.7071067811865847
 31
0.0
210
0.0
220
0.0
230
1.0
 40
0.7725968977395401
 41
5.497787143782171
 42
5.677237959733524
  0
LINE
  5
1E4
330
37
100
AcDbEntity
  8
Sichtbare Kanten(TC_020513_DIN)
100
AcDbLine
 10
119.7854164510502
 20
117.981014519434
 30
0.0
 11
113.308435461986
 21
142.8094416441802
 31
0.0
  0
ELLIPSE
  5
1E5
330
37
100
AcDbEntity
  8
Sichtbare Kanten(TC_020513_DIN)
100
AcDbEllipse
 10
112.3408181895891
 20
142.5570197470332
 30
0.0
 11
0.9676172723968436
 21
0.2524218971470029
 31
0.0
210
0.0
220
0.0
230
0.9999999999999998
 40
0.4046061812640435
 41
4.712388980384698
 42
6.283185307179493
  0
ELLIPSE
  5
1E6
330
37
100
AcDbEntity
  8
Sichtbare Kanten(TC_020513_DIN)
100
AcDbEllipse
 10
112.0799486243717
 20
143.5570197470332
 30
0.0
 11
0.3630010250894691
 21
-1.39150392950963
 31
0.0
210
0.0
220
0.0
230
0.9999999999999998
 40
0.695375163430429
 41
6.10373449122823
 42
6.283185307179611
  0
LINE
  5
1E7
330
37
100
AcDbEntity
  8
Sichtbare Kanten(TC_020513_DIN)
100
AcDbLine
 10
113.308435461986
 20
142.8094416441802
 30
0.0
 11
113.0475658967686
 21
143.8094416441802
 31
0.0
  0
ELLIPSE
  5
1E8
330
37
100
AcDbEntity
  8
Sichtbare Kanten(TC_020513_DIN)
100
AcDbEllipse
 10
112.0799486243717
 20
143.5570197470332
 30
0.0
 11
-0.967617272396844
 21
-0.2524218971470031
 31
0.0
210
0.0
220
0.0
230
1.0
 40
0.404606181264043
 41
1.570796326794869
 42
3.141592653589773
  0
ELLIPSE
  5
1E9
330
37
100
AcDbEntity
  8
Sichtbare Kanten(TC_020513_DIN)
100
AcDbEllipse
 10
111.8190790591543
 20
144.5570197470332
 30
0.0
 11
0.3630010250894691
 21
-1.39150392950963
 31
0.0
210
0.0
220
0.0
230
0.9999999999999998
 40
0.695375163430429
 41
6.103734491228212
 42
6.283185307179594
  0
ARC
  5
1EA
330
37
100
AcDbEntity
  8
Sichtbare Kanten(TC_020513_DIN)
100
AcDbCircle
 10
67.88537204481773
 20
146.39280618466
 30
0.0
 40
1.000000000000014
100
AcDbArc
 50
90.00000000000101
 51
165.3791260113689
  0
ARC
  5
1EB
330
37
100
AcDbEntity
  8
Sichtbare Kanten(TC_020513_DIN)
100
AcDbCircle
 10
111.3401782493386
 20
146.3928061846601
 30
0.0
 40
0.9999999999999955
100
AcDbArc
 50
14.6208739886322
 51
90.00000000000101
  0
LINE
  5
1EC
330
37
100
AcDbEntity
  8
Sichtbare Kanten(TC_020513_DIN)
100
AcDbLine
 10
111.3401782493386
 20
147.3928061846601
 30
0.0
 11
67.88537204481773
 21
147.3928061846601
 31
0.0
  0
LINE
  5
1ED
330
37
100
AcDbEntity
  8
Sichtbare Kanten(TC_020513_DIN)
100
AcDbLine
 10
113.0475658967686
 20
143.8094416441802
 30
0.0
 11
112.3077955217354
 21
146.6452280818071
 31
0.0
  0
ELLIPSE
  5
1EE
330
37
100
AcDbEntity
  8
Sichtbare Kanten(TC_020513_DIN)
100
AcDbEllipse
 10
67.14560166978461
 20
143.5570197470331
 30
0.0
 11
0.967617272396844
 21
-0.2524218971470029
 31
0.0
210
0.0
220
0.0
230
0.9999999999999998
 40
0.4046061812640358
 41
3.141592653589796
 42
4.712388980384697
  0
ELLIPSE
  5
1EF
330
37
100
AcDbEntity
  8
Sichtbare Kanten(TC_020513_DIN)
100
AcDbEllipse
 10
67.40647123500202
 20
144.5570197470332
 30
0.0
 11
-0.3630010250894693
 21
-1.39150392950963
 31
0.0
210
0.0
220
0.0
230
1.0
 40
0.6953751634304292
 41
0.0
 42
0.1794508159513732
  0
ELLIPSE
  5
1F0
330
37
100
AcDbEntity
  8
Sichtbare Kanten(TC_020513_DIN)
100
AcDbEllipse
 10
67.14560166978461
 20
143.5570197470332
 30
0.0
 11
-0.3630010250894693
 21
-1.39150392950963
 31
0.0
210
0.0
220
0.0
230
1.0
 40
0.6953751634304292
 41
0.0
 42
0.1794508159513644
  0
ELLIPSE
  5
1F1
330
37
100
AcDbEntity
  8
Sichtbare Kanten(TC_020513_DIN)
100
AcDbEllipse
 10
60.51580682742642
 20
118.1428061846601
 30
0.0
 11
-0.9152337826561101
 21
-0.7071067811865852
 31
0.0
210
0.0
220
0.0
230
0.9999999999999998
 40
0.7725968977395402
 41
0.605947347446052
 42
0.7853981633974137
  0
LINE
  5
1F2
330
37
100
AcDbEntity
  8
Sichtbare Kanten(TC_020513_DIN)
100
AcDbLine
 10
59.4071111752525
 20
112.8928061846601
 30
0.0
 11
119.8184391189038
 21
112.8928061846601
 31
0.0
  0
LINE
  5
1F3
330
37
100
AcDbEntity
  8
Sichtbare Kanten(TC_020513_DIN)
100
AcDbLine
 10
121.1127751470782
 20
104.9428061846601
 30
0.0
 11
121.1127751470782
 21
112.6362299686569
 31
0.0
  0
LINE
  5
1F4
330
37
100
AcDbEntity
  8
Sichtbare Kanten(TC_020513_DIN)
100
AcDbLine
 10
121.1127751470782
 20
103.3428061846601
 30
0.0
 11
121.1127751470782
 21
103.4428061846601
 31
0.0
  0
LINE
  5
1F5
330
37
100
AcDbEntity
  8
Sichtbare Kanten(TC_020513_DIN)
100
AcDbLine
 10
121.1127751470782
 20
101.7428061846601
 30
0.0
 11
121.1127751470782
 21
101.8428061846601
 31
0.0
  0
LINE
  5
1F6
330
37
100
AcDbEntity
  8
Sichtbare Kanten(TC_020513_DIN)
100
AcDbLine
 10
121.1127751470782
 20
100.1428061846601
 30
0.0
 11
121.1127751470782
 21
100.2428061846601
 31
0.0
  0
LINE
  5
1F7
330
37
100
AcDbEntity
  8
Sichtbare Kanten(TC_020513_DIN)
100
AcDbLine
 10
121.1127751470782
 20
85.89280618466009
 30
0.0
 11
121.1127751470782
 21
98.64280618466009
 31
0.0
  0
LINE
  5
1F8
330
37
100
AcDbEntity
  8
Sichtbare Kanten(TC_020513_DIN)
100
AcDbLine
 10
58.11277514707818
 20
85.89280618466009
 30
0.0
 11
58.11277514707818
 21
98.64280618466009
 31
0.0
  0
LINE
  5
1F9
330
37
100
AcDbEntity
  8
Sichtbare Kanten(TC_020513_DIN)
100
AcDbLine
 10
58.11277514707818
 20
100.1428061846601
 30
0.0
 11
58.11277514707818
 21
100.2428061846601
 31
0.0
  0
LINE
  5
1FA
330
37
100
AcDbEntity
  8
Sichtbare Kanten(TC_020513_DIN)
100
AcDbLine
 10
58.11277514707818
 20
101.7428061846601
 30
0.0
 11
58.11277514707818
 21
101.8428061846601
 31
0.0
  0
LINE
  5
1FB
330
37
100
AcDbEntity
  8
Sichtbare Kanten(TC_020513_DIN)
100
AcDbLine
 10
58.11277514707818
 20
103.3428061846601
 30
0.0
 11
58.11277514707818
 21
103.4428061846601
 31
0.0
  0
LINE
  5
1FC
330
37
100
AcDbEntity
  8
Sichtbare Kanten(TC_020513_DIN)
100
AcDbLine
 10
58.11277514707818
 20
104.9428061846601
 30
0.0
 11
58.11277514707818
 21
112.6362299686569
 31
0.0
  0
LINE
  5
1FD
330
37
100
AcDbEntity
  8
Sichtbare Kanten(TC_020513_DIN)
100
AcDbLine
 10
121.1127751470782
 20
103.4428061846601
 30
0.0
 11
121.1127751470782
 21
104.9428061846601
 31
0.0
  0
LINE
  5
1FE
330
37
100
AcDbEntity
  8
Sichtbare Kanten(TC_020513_DIN)
100
AcDbLine
 10
121.1127751470782
 20
101.8428061846601
 30
0.0
 11
121.1127751470782
 21
103.3428061846601
 31
0.0
  0
LINE
  5
1FF
330
37
100
AcDbEntity
  8
Sichtbare Kanten(TC_020513_DIN)
100
AcDbLine
 10
121.1127751470782
 20
100.2428061846601
 30
0.0
 11
121.1127751470782
 21
101.7428061846601
 31
0.0
  0
LINE
  5
200
330
37
100
AcDbEntity
  8
Sichtbare Kanten(TC_020513_DIN)
100
AcDbLine
 10
121.1127751470782
 20
104.9428061846601
 30
0.0
 11
120.4127751470781
 21
104.2428061846601
 31
0.0
  0
LINE
  5
201
330
37
100
AcDbEntity
  8
Sichtbare Kanten(TC_020513_DIN)
100
AcDbLine
 10
120.4127751470781
 20
104.2428061846601
 30
0.0
 11
117.1127751470782
 21
104.2428061846601
 31
0.0
  0
LINE
  5
202
330
37
100
AcDbEntity
  8
Sichtbare Kanten(TC_020513_DIN)
100
AcDbLine
 10
117.1127751470782
 20
104.9428061846601
 30
0.0
 11
121.1127751470782
 21
104.9428061846601
 31
0.0
  0
LINE
  5
203
330
37
100
AcDbEntity
  8
Sichtbare Kanten(TC_020513_DIN)
100
AcDbLine
 10
62.11277514707817
 20
104.2428061846601
 30
0.0
 11
117.1127751470782
 21
104.2428061846601
 31
0.0
  0
LINE
  5
204
330
37
100
AcDbEntity
  8
Sichtbare Kanten(TC_020513_DIN)
100
AcDbLine
 10
117.1127751470782
 20
104.9428061846601
 30
0.0
 11
62.11277514707816
 21
104.9428061846601
 31
0.0
  0
LINE
  5
205
330
37
100
AcDbEntity
  8
Sichtbare Kanten(TC_020513_DIN)
100
AcDbLine
 10
58.11277514707818
 20
104.9428061846601
 30
0.0
 11
58.81277514707817
 21
104.2428061846601
 31
0.0
  0
LINE
  5
206
330
37
100
AcDbEntity
  8
Sichtbare Kanten(TC_020513_DIN)
100
AcDbLine
 10
62.11277514707817
 20
104.2428061846601
 30
0.0
 11
58.81277514707814
 21
104.2428061846601
 31
0.0
  0
LINE
  5
207
330
37
100
AcDbEntity
  8
Sichtbare Kanten(TC_020513_DIN)
100
AcDbLine
 10
58.11277514707818
 20
104.9428061846601
 30
0.0
 11
62.11277514707818
 21
104.9428061846601
 31
0.0
  0
LINE
  5
208
330
37
100
AcDbEntity
  8
Sichtbare Kanten(TC_020513_DIN)
100
AcDbLine
 10
58.11277514707818
 20
101.7428061846601
 30
0.0
 11
58.11277514707818
 21
100.2428061846601
 31
0.0
  0
LINE
  5
209
330
37
100
AcDbEntity
  8
Sichtbare Kanten(TC_020513_DIN)
100
AcDbLine
 10
58.11277514707818
 20
103.3428061846601
 30
0.0
 11
58.11277514707818
 21
101.8428061846601
 31
0.0
  0
LINE
  5
20A
330
37
100
AcDbEntity
  8
Sichtbare Kanten(TC_020513_DIN)
100
AcDbLine
 10
58.11277514707818
 20
104.9428061846601
 30
0.0
 11
58.11277514707818
 21
103.4428061846601
 31
0.0
  0
LINE
  5
20B
330
37
100
AcDbEntity
  8
Sichtbare Kanten(TC_020513_DIN)
100
AcDbLine
 10
121.1127751470782
 20
103.4428061846601
 30
0.0
 11
120.4127751470781
 21
104.1428061846601
 31
0.0
  0
LINE
  5
20C
330
37
100
AcDbEntity
  8
Sichtbare Kanten(TC_020513_DIN)
100
AcDbLine
 10
117.1127751470782
 20
104.1428061846601
 30
0.0
 11
120.4127751470781
 21
104.1428061846601
 31
0.0
  0
LINE
  5
20D
330
37
100
AcDbEntity
  8
Sichtbare Kanten(TC_020513_DIN)
100
AcDbLine
 10
121.1127751470782
 20
103.4428061846601
 30
0.0
 11
117.1127751470782
 21
103.4428061846601
 31
0.0
  0
LINE
  5
20E
330
37
100
AcDbEntity
  8
Sichtbare Kanten(TC_020513_DIN)
100
AcDbLine
 10
117.1127751470782
 20
104.1428061846601
 30
0.0
 11
62.11277514707817
 21
104.1428061846601
 31
0.0
  0
LINE
  5
20F
330
37
100
AcDbEntity
  8
Sichtbare Kanten(TC_020513_DIN)
100
AcDbLine
 10
62.11277514707817
 20
103.4428061846601
 30
0.0
 11
117.1127751470782
 21
103.4428061846601
 31
0.0
  0
LINE
  5
210
330
37
100
AcDbEntity
  8
Sichtbare Kanten(TC_020513_DIN)
100
AcDbLine
 10
58.81277514707815
 20
104.1428061846601
 30
0.0
 11
62.11277514707818
 21
104.1428061846601
 31
0.0
  0
LINE
  5
211
330
37
100
AcDbEntity
  8
Sichtbare Kanten(TC_020513_DIN)
100
AcDbLine
 10
58.81277514707817
 20
104.1428061846601
 30
0.0
 11
58.11277514707818
 21
103.4428061846601
 31
0.0
  0
LINE
  5
212
330
37
100
AcDbEntity
  8
Sichtbare Kanten(TC_020513_DIN)
100
AcDbLine
 10
62.11277514707817
 20
103.4428061846601
 30
0.0
 11
58.11277514707818
 21
103.4428061846601
 31
0.0
  0
LINE
  5
213
330
37
100
AcDbEntity
  8
Sichtbare Kanten(TC_020513_DIN)
100
AcDbLine
 10
117.1127751470782
 20
103.3428061846601
 30
0.0
 11
121.1127751470782
 21
103.3428061846601
 31
0.0
  0
LINE
  5
214
330
37
100
AcDbEntity
  8
Sichtbare Kanten(TC_020513_DIN)
100
AcDbLine
 10
58.81277514707817
 20
102.6428061846601
 30
0.0
 11
58.11277514707818
 21
103.3428061846601
 31
0.0
  0
LINE
  5
215
330
37
100
AcDbEntity
  8
Sichtbare Kanten(TC_020513_DIN)
100
AcDbLine
 10
62.11277514707817
 20
102.6428061846601
 30
0.0
 11
58.81277514707814
 21
102.6428061846601
 31
0.0
  0
LINE
  5
216
330
37
100
AcDbEntity
  8
Sichtbare Kanten(TC_020513_DIN)
100
AcDbLine
 10
58.11277514707818
 20
103.3428061846601
 30
0.0
 11
62.11277514707818
 21
103.3428061846601
 31
0.0
  0
LINE
  5
217
330
37
100
AcDbEntity
  8
Sichtbare Kanten(TC_020513_DIN)
100
AcDbLine
 10
62.11277514707817
 20
102.6428061846601
 30
0.0
 11
117.1127751470782
 21
102.6428061846601
 31
0.0
  0
LINE
  5
218
330
37
100
AcDbEntity
  8
Sichtbare Kanten(TC_020513_DIN)
100
AcDbLine
 10
117.1127751470782
 20
103.3428061846601
 30
0.0
 11
62.11277514707816
 21
103.3428061846601
 31
0.0
  0
LINE
  5
219
330
37
100
AcDbEntity
  8
Sichtbare Kanten(TC_020513_DIN)
100
AcDbLine
 10
120.4127751470781
 20
102.6428061846601
 30
0.0
 11
117.1127751470782
 21
102.6428061846601
 31
0.0
  0
LINE
  5
21A
330
37
100
AcDbEntity
  8
Sichtbare Kanten(TC_020513_DIN)
100
AcDbLine
 10
120.4127751470781
 20
102.6428061846601
 30
0.0
 11
121.1127751470782
 21
103.3428061846601
 31
0.0
  0
LINE
  5
21B
330
37
100
AcDbEntity
  8
Sichtbare Kanten(TC_020513_DIN)
100
AcDbLine
 10
121.1127751470782
 20
101.8428061846601
 30
0.0
 11
120.4127751470781
 21
102.5428061846601
 31
0.0
  0
LINE
  5
21C
330
37
100
AcDbEntity
  8
Sichtbare Kanten(TC_020513_DIN)
100
AcDbLine
 10
117.1127751470782
 20
102.5428061846601
 30
0.0
 11
120.4127751470781
 21
102.5428061846601
 31
0.0
  0
LINE
  5
21D
330
37
100
AcDbEntity
  8
Sichtbare Kanten(TC_020513_DIN)
100
AcDbLine
 10
121.1127751470782
 20
101.8428061846601
 30
0.0
 11
117.1127751470782
 21
101.8428061846601
 31
0.0
  0
LINE
  5
21E
330
37
100
AcDbEntity
  8
Sichtbare Kanten(TC_020513_DIN)
100
AcDbLine
 10
117.1127751470782
 20
102.5428061846601
 30
0.0
 11
62.11277514707817
 21
102.5428061846601
 31
0.0
  0
LINE
  5
21F
330
37
100
AcDbEntity
  8
Sichtbare Kanten(TC_020513_DIN)
100
AcDbLine
 10
62.11277514707817
 20
101.8428061846601
 30
0.0
 11
117.1127751470782
 21
101.8428061846601
 31
0.0
  0
LINE
  5
220
330
37
100
AcDbEntity
  8
Sichtbare Kanten(TC_020513_DIN)
100
AcDbLine
 10
58.81277514707815
 20
102.5428061846601
 30
0.0
 11
62.11277514707818
 21
102.5428061846601
 31
0.0
  0
LINE
  5
221
330
37
100
AcDbEntity
  8
Sichtbare Kanten(TC_020513_DIN)
100
AcDbLine
 10
58.81277514707817
 20
102.5428061846601
 30
0.0
 11
58.11277514707818
 21
101.8428061846601
 31
0.0
  0
LINE
  5
222
330
37
100
AcDbEntity
  8
Sichtbare Kanten(TC_020513_DIN)
100
AcDbLine
 10
62.11277514707817
 20
101.8428061846601
 30
0.0
 11
58.11277514707818
 21
101.8428061846601
 31
0.0
  0
LINE
  5
223
330
37
100
AcDbEntity
  8
Sichtbare Kanten(TC_020513_DIN)
100
AcDbLine
 10
58.11277514707818
 20
101.7428061846601
 30
0.0
 11
62.11277514707818
 21
101.7428061846601
 31
0.0
  0
LINE
  5
224
330
37
100
AcDbEntity
  8
Sichtbare Kanten(TC_020513_DIN)
100
AcDbLine
 10
121.1127751470782
 20
101.7428061846601
 30
0.0
 11
120.4127751470781
 21
101.0428061846601
 31
0.0
  0
LINE
  5
225
330
37
100
AcDbEntity
  8
Sichtbare Kanten(TC_020513_DIN)
100
AcDbLine
 10
120.4127751470781
 20
101.0428061846601
 30
0.0
 11
117.1127751470782
 21
101.0428061846601
 31
0.0
  0
LINE
  5
226
330
37
100
AcDbEntity
  8
Sichtbare Kanten(TC_020513_DIN)
100
AcDbLine
 10
117.1127751470782
 20
101.7428061846601
 30
0.0
 11
121.1127751470782
 21
101.7428061846601
 31
0.0
  0
LINE
  5
227
330
37
100
AcDbEntity
  8
Sichtbare Kanten(TC_020513_DIN)
100
AcDbLine
 10
62.11277514707817
 20
101.0428061846601
 30
0.0
 11
117.1127751470782
 21
101.0428061846601
 31
0.0
  0
LINE
  5
228
330
37
100
AcDbEntity
  8
Sichtbare Kanten(TC_020513_DIN)
100
AcDbLine
 10
117.1127751470782
 20
101.7428061846601
 30
0.0
 11
62.11277514707816
 21
101.7428061846601
 31
0.0
  0
LINE
  5
229
330
37
100
AcDbEntity
  8
Sichtbare Kanten(TC_020513_DIN)
100
AcDbLine
 10
58.11277514707818
 20
101.7428061846601
 30
0.0
 11
58.81277514707817
 21
101.0428061846601
 31
0.0
  0
LINE
  5
22A
330
37
100
AcDbEntity
  8
Sichtbare Kanten(TC_020513_DIN)
100
AcDbLine
 10
62.11277514707817
 20
101.0428061846601
 30
0.0
 11
58.81277514707814
 21
101.0428061846601
 31
0.0
  0
LINE
  5
22B
330
37
100
AcDbEntity
  8
Sichtbare Kanten(TC_020513_DIN)
100
AcDbLine
 10
121.1127751470782
 20
100.2428061846601
 30
0.0
 11
120.4127751470781
 21
100.9428061846601
 31
0.0
  0
LINE
  5
22C
330
37
100
AcDbEntity
  8
Sichtbare Kanten(TC_020513_DIN)
100
AcDbLine
 10
117.1127751470782
 20
100.9428061846601
 30
0.0
 11
120.4127751470781
 21
100.9428061846601
 31
0.0
  0
LINE
  5
22D
330
37
100
AcDbEntity
  8
Sichtbare Kanten(TC_020513_DIN)
100
AcDbLine
 10
121.1127751470782
 20
100.2428061846601
 30
0.0
 11
117.1127751470782
 21
100.2428061846601
 31
0.0
  0
LINE
  5
22E
330
37
100
AcDbEntity
  8
Sichtbare Kanten(TC_020513_DIN)
100
AcDbLine
 10
117.1127751470782
 20
100.9428061846601
 30
0.0
 11
62.11277514707817
 21
100.9428061846601
 31
0.0
  0
LINE
  5
22F
330
37
100
AcDbEntity
  8
Sichtbare Kanten(TC_020513_DIN)
100
AcDbLine
 10
62.11277514707817
 20
100.2428061846601
 30
0.0
 11
117.1127751470782
 21
100.2428061846601
 31
0.0
  0
LINE
  5
230
330
37
100
AcDbEntity
  8
Sichtbare Kanten(TC_020513_DIN)
100
AcDbLine
 10
58.81277514707815
 20
100.9428061846601
 30
0.0
 11
62.11277514707818
 21
100.9428061846601
 31
0.0
  0
LINE
  5
231
330
37
100
AcDbEntity
  8
Sichtbare Kanten(TC_020513_DIN)
100
AcDbLine
 10
58.81277514707817
 20
100.9428061846601
 30
0.0
 11
58.11277514707818
 21
100.2428061846601
 31
0.0
  0
LINE
  5
232
330
37
100
AcDbEntity
  8
Sichtbare Kanten(TC_020513_DIN)
100
AcDbLine
 10
62.11277514707817
 20
100.2428061846601
 30
0.0
 11
58.11277514707818
 21
100.2428061846601
 31
0.0
  0
LINE
  5
233
330
37
100
AcDbEntity
  8
Sichtbare Kanten(TC_020513_DIN)
100
AcDbLine
 10
120.4127751470781
 20
104.1428061846601
 30
0.0
 11
120.4127751470781
 21
104.2428061846601
 31
0.0
  0
LINE
  5
234
330
37
100
AcDbEntity
  8
Sichtbare Kanten(TC_020513_DIN)
100
AcDbLine
 10
58.81277514707817
 20
104.1428061846601
 30
0.0
 11
58.81277514707817
 21
104.2428061846601
 31
0.0
  0
LINE
  5
235
330
37
100
AcDbEntity
  8
Sichtbare Kanten(TC_020513_DIN)
100
AcDbLine
 10
120.4127751470781
 20
102.5428061846601
 30
0.0
 11
120.4127751470781
 21
102.6428061846601
 31
0.0
  0
LINE
  5
236
330
37
100
AcDbEntity
  8
Sichtbare Kanten(TC_020513_DIN)
100
AcDbLine
 10
58.81277514707817
 20
102.5428061846601
 30
0.0
 11
58.81277514707817
 21
102.6428061846601
 31
0.0
  0
LINE
  5
237
330
37
100
AcDbEntity
  8
Sichtbare Kanten(TC_020513_DIN)
100
AcDbLine
 10
120.4127751470781
 20
100.9428061846601
 30
0.0
 11
120.4127751470781
 21
101.0428061846601
 31
0.0
  0
LINE
  5
238
330
37
100
AcDbEntity
  8
Sichtbare Kanten(TC_020513_DIN)
100
AcDbLine
 10
58.81277514707817
 20
100.9428061846601
 30
0.0
 11
58.81277514707817
 21
101.0428061846601
 31
0.0
  0
LINE
  5
239
330
37
100
AcDbEntity
  8
Sichtbare Kanten(TC_020513_DIN)
100
AcDbLine
 10
121.1127751470782
 20
98.64280618466009
 30
0.0
 11
121.1127751470782
 21
100.1428061846601
 31
0.0
  0
LINE
  5
23A
330
37
100
AcDbEntity
  8
Sichtbare Kanten(TC_020513_DIN)
100
AcDbLine
 10
58.11277514707818
 20
100.1428061846601
 30
0.0
 11
58.11277514707818
 21
98.64280618466009
 31
0.0
  0
LINE
  5
23B
330
37
100
AcDbEntity
  8
Sichtbare Kanten(TC_020513_DIN)
100
AcDbLine
 10
120.4127751470781
 20
99.34280618466008
 30
0.0
 11
120.4127751470781
 21
99.44280618466009
 31
0.0
  0
LINE
  5
23C
330
37
100
AcDbEntity
  8
Sichtbare Kanten(TC_020513_DIN)
100
AcDbLine
 10
58.81277514707817
 20
99.34280618466008
 30
0.0
 11
58.81277514707817
 21
99.44280618466009
 31
0.0
  0
LINE
  5
23D
330
37
100
AcDbEntity
  8
Sichtbare Kanten(TC_020513_DIN)
100
AcDbLine
 10
118.7097434667299
 20
118.1428061846601
 30
0.0
 11
60.51580682742642
 21
118.1428061846601
 31
0.0
  0
LINE
  5
23E
330
37
100
AcDbEntity
  8
Sichtbare Kanten(TC_020513_DIN)
100
AcDbLine
 10
118.9706130319473
 20
117.1428061846601
 30
0.0
 11
60.25493726220902
 21
117.1428061846601
 31
0.0
  0
LINE
  5
23F
330
37
100
AcDbEntity
  8
Sichtbare Kanten(TC_020513_DIN)
100
AcDbLine
 10
112.2644112629421
 20
142.1428061846601
 30
0.0
 11
66.96113903121421
 21
142.1428061846601
 31
0.0
  0
LINE
  5
240
330
37
100
AcDbEntity
  8
Sichtbare Kanten(TC_020513_DIN)
100
AcDbLine
 10
67.22200859643161
 20
143.1428061846601
 30
0.0
 11
112.0035416977247
 21
143.1428061846601
 31
0.0
  0
LINE
  5
241
330
37
100
AcDbEntity
  8
Sichtbare Kanten(TC_020513_DIN)
100
AcDbLine
 10
53.61277514707817
 20
92.19280618466006
 30
0.0
 11
53.61277514707817
 21
88.59280618466007
 31
0.0
  0
LINE
  5
242
330
37
100
AcDbEntity
  8
Sichtbare Kanten(TC_020513_DIN)
100
AcDbLine
 10
57.21277514707816
 20
92.19280618466006
 30
0.0
 11
57.21277514707818
 21
88.59280618466007
 31
0.0
  0
LINE
  5
243
330
37
100
AcDbEntity
  8
Sichtbare Kanten(TC_020513_DIN)
100
AcDbLine
 10
57.21277514707818
 20
88.59280618466007
 30
0.0
 11
53.61277514707818
 21
88.59280618466007
 31
0.0
  0
LINE
  5
244
330
37
100
AcDbEntity
  8
Sichtbare Kanten(TC_020513_DIN)
100
AcDbLine
 10
57.21277514707818
 20
92.19280618466006
 30
0.0
 11
53.61277514707817
 21
92.19280618466006
 31
0.0
  0
LINE
  5
245
330
37
100
AcDbEntity
  8
Sichtbare Kanten(TC_020513_DIN)
100
AcDbLine
 10
57.21277514707818
 20
92.19280618466006
 30
0.0
 11
58.11277514707818
 21
93.09280618466006
 31
0.0
  0
LINE
  5
246
330
37
100
AcDbEntity
  8
Sichtbare Kanten(TC_020513_DIN)
100
AcDbLine
 10
57.21277514707818
 20
88.59280618466007
 30
0.0
 11
58.11277514707817
 21
87.69280618466007
 31
0.0
  0
LINE
  5
247
330
37
100
AcDbEntity
  8
Sichtbare Kanten(TC_020513_DIN)
100
AcDbLine
 10
125.6127751470782
 20
92.19280618466006
 30
0.0
 11
125.6127751470782
 21
88.59280618466007
 31
0.0
  0
LINE
  5
248
330
37
100
AcDbEntity
  8
Sichtbare Kanten(TC_020513_DIN)
100
AcDbLine
 10
122.0127751470782
 20
92.19280618466006
 30
0.0
 11
122.0127751470782
 21
88.59280618466007
 31
0.0
  0
LINE
  5
249
330
37
100
AcDbEntity
  8
Sichtbare Kanten(TC_020513_DIN)
100
AcDbLine
 10
125.6127751470782
 20
88.59280618466007
 30
0.0
 11
122.0127751470782
 21
88.59280618466007
 31
0.0
  0
LINE
  5
24A
330
37
100
AcDbEntity
  8
Sichtbare Kanten(TC_020513_DIN)
100
AcDbLine
 10
125.6127751470782
 20
92.19280618466006
 30
0.0
 11
122.0127751470782
 21
92.19280618466006
 31
0.0
  0
LINE
  5
24B
330
37
100
AcDbEntity
  8
Sichtbare Kanten(TC_020513_DIN)
100
AcDbLine
 10
122.0127751470782
 20
88.59280618466007
 30
0.0
 11
121.1127751470782
 21
87.69280618466007
 31
0.0
  0
LINE
  5
24C
330
37
100
AcDbEntity
  8
Sichtbare Kanten(TC_020513_DIN)
100
AcDbLine
 10
122.0127751470782
 20
92.19280618466006
 30
0.0
 11
121.1127751470782
 21
93.09280618466006
 31
0.0
  0
LINE
  5
24D
330
37
100
AcDbEntity
  8
Sichtbare Kanten(TC_020513_DIN)
100
AcDbLine
 10
91.36277514707817
 20
88.83647279579589
 30
0.0
 11
91.36277514707817
 21
91.94913957352429
 31
0.0
  0
ARC
  5
24E
330
37
100
AcDbEntity
  8
Sichtbare Kanten(TC_020513_DIN)
100
AcDbCircle
 10
91.61277514707819
 20
88.83647279579589
 30
0.0
 40
0.2500000000000007
100
AcDbArc
 50
180.0
 51
299.9706156499831
  0
LINE
  5
24F
330
37
100
AcDbEntity
  8
Sichtbare Kanten(TC_020513_DIN)
100
AcDbLine
 10
92.73766409457067
 20
89.19656903328482
 30
0.0
 11
91.73766409457066
 21
88.61990236661815
 31
0.0
  0
ARC
  5
250
330
37
100
AcDbEntity
  8
Sichtbare Kanten(TC_020513_DIN)
100
AcDbCircle
 10
92.61277514707819
 20
89.41313946246253
 30
0.0
 40
0.2500000000000005
100
AcDbArc
 50
299.9706156499831
 51
119.9706156499831
  0
LINE
  5
251
330
37
100
AcDbEntity
  8
Sichtbare Kanten(TC_020513_DIN)
100
AcDbLine
 10
91.86277514707818
 20
89.26922918469427
 30
0.0
 11
92.48788619958572
 21
89.62970989164025
 31
0.0
  0
LINE
  5
252
330
37
100
AcDbEntity
  8
Sichtbare Kanten(TC_020513_DIN)
100
AcDbLine
 10
91.86277514707818
 20
90.14280618466008
 30
0.0
 11
91.86277514707818
 21
89.26922918469427
 31
0.0
  0
LINE
  5
253
330
37
100
AcDbEntity
  8
Sichtbare Kanten(TC_020513_DIN)
100
AcDbLine
 10
92.61277514707819
 20
90.14280618466008
 30
0.0
 11
91.86277514707818
 21
90.14280618466008
 31
0.0
  0
ARC
  5
254
330
37
100
AcDbEntity
  8
Sichtbare Kanten(TC_020513_DIN)
100
AcDbCircle
 10
92.61277514707819
 20
90.39280618466008
 30
0.0
 40
0.2500000000000002
100
AcDbArc
 50
270.0
 51
90.0
  0
LINE
  5
255
330
37
100
AcDbEntity
  8
Sichtbare Kanten(TC_020513_DIN)
100
AcDbLine
 10
91.86277514707818
 20
90.64280618466009
 30
0.0
 11
92.61277514707819
 21
90.64280618466009
 31
0.0
  0
LINE
  5
256
330
37
100
AcDbEntity
  8
Sichtbare Kanten(TC_020513_DIN)
100
AcDbLine
 10
91.86277514707818
 20
91.51638318462591
 30
0.0
 11
91.86277514707818
 21
90.64280618466009
 31
0.0
  0
LINE
  5
257
330
37
100
AcDbEntity
  8
Sichtbare Kanten(TC_020513_DIN)
100
AcDbLine
 10
92.48788619958572
 20
91.15590247767991
 30
0.0
 11
91.86277514707818
 21
91.51638318462591
 31
0.0
  0
ARC
  5
258
330
37
100
AcDbEntity
  8
Sichtbare Kanten(TC_020513_DIN)
100
AcDbCircle
 10
92.61277514707817
 20
91.37247290685763
 30
0.0
 40
0.2500000000000001
100
AcDbArc
 50
240.0293843500169
 51
60.02938435001691
  0
LINE
  5
259
330
37
100
AcDbEntity
  8
Sichtbare Kanten(TC_020513_DIN)
100
AcDbLine
 10
91.73766409457066
 20
92.16571000270201
 30
0.0
 11
92.73766409457067
 21
91.58904333603535
 31
0.0
  0
ARC
  5
25A
330
37
100
AcDbEntity
  8
Sichtbare Kanten(TC_020513_DIN)
100
AcDbCircle
 10
91.61277514707817
 20
91.94913957352429
 30
0.0
 40
0.2499999999999994
100
AcDbArc
 50
60.0293843500169
 51
180.0
  0
ARC
  5
25B
330
37
100
AcDbEntity
  8
Sichtbare Kanten(TC_020513_DIN)
100
AcDbCircle
 10
86.61277514707819
 20
89.40280618466008
 30
0.0
 40
0.2500000000000002
100
AcDbArc
 50
180.0
 51
0.0
  0
LINE
  5
25C
330
37
100
AcDbEntity
  8
Sichtbare Kanten(TC_020513_DIN)
100
AcDbLine
 10
86.86277514707818
 20
91.3828061846601
 30
0.0
 11
86.86277514707818
 21
89.40280618466008
 31
0.0
  0
ARC
  5
25D
330
37
100
AcDbEntity
  8
Sichtbare Kanten(TC_020513_DIN)
100
AcDbCircle
 10
86.61277514707819
 20
91.3828061846601
 30
0.0
 40
0.2500000000000002
100
AcDbArc
 50
0.0
 51
180.0
  0
LINE
  5
25E
330
37
100
AcDbEntity
  8
Sichtbare Kanten(TC_020513_DIN)
100
AcDbLine
 10
86.36277514707819
 20
89.40280618466008
 30
0.0
 11
86.36277514707819
 21
91.3828061846601
 31
0.0
  0
LINE
  5
25F
330
37
100
AcDbEntity
  8
Sichtbare Kanten(TC_020513_DIN)
100
AcDbLine
 10
83.6127751470782
 20
90.39280618466008
 30
0.0
 11
89.61277514707818
 21
86.93280618466008
 31
0.0
  0
LINE
  5
260
330
37
100
AcDbEntity
  8
Sichtbare Kanten(TC_020513_DIN)
100
AcDbLine
 10
89.61277514707818
 20
86.93280618466008
 30
0.0
 11
95.61277514707818
 21
90.39280618466008
 31
0.0
  0
LINE
  5
261
330
37
100
AcDbEntity
  8
Sichtbare Kanten(TC_020513_DIN)
100
AcDbLine
 10
95.61277514707818
 20
90.39280618466008
 30
0.0
 11
89.61277514707818
 21
93.8528061846601
 31
0.0
  0
LINE
  5
262
330
37
100
AcDbEntity
  8
Sichtbare Kanten(TC_020513_DIN)
100
AcDbLine
 10
89.61277514707818
 20
93.8528061846601
 30
0.0
 11
83.6127751470782
 21
90.39280618466008
 31
0.0
  0
LINE
  5
263
330
37
100
AcDbEntity
  8
Sichtbare Kanten(TC_020513_DIN)
100
AcDbLine
 10
89.61277514707818
 20
86.64421646242836
 30
0.0
 11
83.11233054205208
 21
90.39280618466008
 31
0.0
  0
LINE
  5
264
330
37
100
AcDbEntity
  8
Sichtbare Kanten(TC_020513_DIN)
100
AcDbLine
 10
96.11321975210429
 20
90.39280618466008
 30
0.0
 11
89.61277514707818
 21
86.64421646242836
 31
0.0
  0
LINE
  5
265
330
37
100
AcDbEntity
  8
Sichtbare Kanten(TC_020513_DIN)
100
AcDbLine
 10
89.6127751470782
 20
94.14139590689181
 30
0.0
 11
96.11321975210429
 21
90.39280618466008
 31
0.0
  0
LINE
  5
266
330
37
100
AcDbEntity
  8
Sichtbare Kanten(TC_020513_DIN)
100
AcDbLine
 10
83.11233054205208
 20
90.39280618466008
 30
0.0
 11
89.6127751470782
 21
94.14139590689181
 31
0.0
  0
ARC
  5
267
330
37
100
AcDbEntity
  8
Sichtbare Kanten(TC_020513_DIN)
100
AcDbCircle
 10
87.61277514707819
 20
88.83647279579585
 30
0.0
 40
0.2500000000000029
100
AcDbArc
 50
180.0
 51
240.0293843500169
  0
LINE
  5
268
330
37
100
AcDbEntity
  8
Sichtbare Kanten(TC_020513_DIN)
100
AcDbLine
 10
89.4878861995857
 20
87.46656903328483
 30
0.0
 11
87.48788619958572
 21
88.61990236661814
 31
0.0
  0
ARC
  5
269
330
37
100
AcDbEntity
  8
Sichtbare Kanten(TC_020513_DIN)
100
AcDbCircle
 10
89.61277514707818
 20
87.68313946246253
 30
0.0
 40
0.2499999999999995
100
AcDbArc
 50
240.0293843500169
 51
60.02938435001691
  0
LINE
  5
26A
330
37
100
AcDbEntity
  8
Sichtbare Kanten(TC_020513_DIN)
100
AcDbLine
 10
87.86277514707819
 20
88.98089585136091
 30
0.0
 11
89.73766409457068
 21
87.89970989164025
 31
0.0
  0
LINE
  5
26B
330
37
100
AcDbEntity
  8
Sichtbare Kanten(TC_020513_DIN)
100
AcDbLine
 10
87.86277514707819
 20
91.94913957352429
 30
0.0
 11
87.86277514707819
 21
88.98089585136091
 31
0.0
  0
ARC
  5
26C
330
37
100
AcDbEntity
  8
Sichtbare Kanten(TC_020513_DIN)
100
AcDbCircle
 10
87.61277514707819
 20
91.94913957352429
 30
0.0
 40
0.25
100
AcDbArc
 50
0.0
 51
180.0
  0
LINE
  5
26D
330
37
100
AcDbEntity
  8
Sichtbare Kanten(TC_020513_DIN)
100
AcDbLine
 10
87.3627751470782
 20
88.83647279579589
 30
0.0
 11
87.3627751470782
 21
91.94913957352429
 31
0.0
  0
ARC
  5
26E
330
37
100
AcDbEntity
  8
Sichtbare Kanten(TC_020513_DIN)
100
AcDbCircle
 10
88.6127751470782
 20
89.40280618466008
 30
0.0
 40
0.2500000000000002
100
AcDbArc
 50
180.0
 51
0.0
  0
LINE
  5
26F
330
37
100
AcDbEntity
  8
Sichtbare Kanten(TC_020513_DIN)
100
AcDbLine
 10
88.86277514707817
 20
91.77303721192494
 30
0.0
 11
88.86277514707821
 21
89.40280618466008
 31
0.0
  0
LINE
  5
270
330
37
100
AcDbEntity
  8
Sichtbare Kanten(TC_020513_DIN)
100
AcDbLine
 10
89.61277514707818
 20
90.76842386243994
 30
0.0
 11
88.86277514707817
 21
91.77303721192494
 31
0.0
  0
LINE
  5
271
330
37
100
AcDbEntity
  8
Sichtbare Kanten(TC_020513_DIN)
100
AcDbLine
 10
90.36277514707819
 20
91.77303721192494
 30
0.0
 11
89.61277514707818
 21
90.76842386243994
 31
0.0
  0
LINE
  5
272
330
37
100
AcDbEntity
  8
Sichtbare Kanten(TC_020513_DIN)
100
AcDbLine
 10
90.36277514707819
 20
88.25980612912921
 30
0.0
 11
90.36277514707819
 21
91.77303721192494
 31
0.0
  0
ARC
  5
273
330
37
100
AcDbEntity
  8
Sichtbare Kanten(TC_020513_DIN)
100
AcDbCircle
 10
90.61277514707819
 20
88.25980612912921
 30
0.0
 40
0.2499999999999994
100
AcDbArc
 50
180.0
 51
0.0
  0
LINE
  5
274
330
37
100
AcDbEntity
  8
Sichtbare Kanten(TC_020513_DIN)
100
AcDbLine
 10
90.8627751470782
 20
92.52580624019095
 30
0.0
 11
90.8627751470782
 21
88.25980612912921
 31
0.0
  0
ARC
  5
275
330
37
100
AcDbEntity
  8
Sichtbare Kanten(TC_020513_DIN)
100
AcDbCircle
 10
90.61277514707818
 20
92.52580624019095
 30
0.0
 40
0.2499999999999998
100
AcDbArc
 50
0.0
 51
143.2566048621631
  0
LINE
  5
276
330
37
100
AcDbEntity
  8
Sichtbare Kanten(TC_020513_DIN)
100
AcDbLine
 10
89.61277514707818
 20
91.60421968598235
 30
0.0
 11
90.41244445203128
 21
92.67536429788775
 31
0.0
  0
LINE
  5
277
330
37
100
AcDbEntity
  8
Sichtbare Kanten(TC_020513_DIN)
100
AcDbLine
 10
88.81310584212508
 20
92.67536429788775
 30
0.0
 11
89.61277514707818
 21
91.60421968598235
 31
0.0
  0
ARC
  5
278
330
37
100
AcDbEntity
  8
Sichtbare Kanten(TC_020513_DIN)
100
AcDbCircle
 10
88.6127751470782
 20
92.52580624019095
 30
0.0
 40
0.2500000000000007
100
AcDbArc
 50
36.74339513783684
 51
180.0
  0
LINE
  5
279
330
37
100
AcDbEntity
  8
Sichtbare Kanten(TC_020513_DIN)
100
AcDbLine
 10
88.36277514707818
 20
89.40280618466008
 30
0.0
 11
88.3627751470782
 21
92.52580624019095
 31
0.0
  0
LINE
  5
27A
330
37
100
AcDbEntity
  8
Sichtbare Kanten(TC_020513_DIN)
100
AcDbLine
 10
62.11277514707817
 20
98.64280618466009
 30
0.0
 11
117.1127751470782
 21
98.64280618466009
 31
0.0
  0
LINE
  5
27B
330
37
100
AcDbEntity
  8
Sichtbare Kanten(TC_020513_DIN)
100
AcDbLine
 10
117.1127751470782
 20
100.1428061846601
 30
0.0
 11
121.1127751470782
 21
100.1428061846601
 31
0.0
  0
LINE
  5
27C
330
37
100
AcDbEntity
  8
Sichtbare Kanten(TC_020513_DIN)
100
AcDbLine
 10
117.1127751470782
 20
100.1428061846601
 30
0.0
 11
62.11277514707816
 21
100.1428061846601
 31
0.0
  0
LINE
  5
27D
330
37
100
AcDbEntity
  8
Sichtbare Kanten(TC_020513_DIN)
100
AcDbLine
 10
58.11277514707818
 20
100.1428061846601
 30
0.0
 11
62.11277514707818
 21
100.1428061846601
 31
0.0
  0
LINE
  5
27E
330
37
100
AcDbEntity
  8
Sichtbare Kanten(TC_020513_DIN)
100
AcDbLine
 10
121.1127751470782
 20
100.1428061846601
 30
0.0
 11
120.4127751470781
 21
99.44280618466009
 31
0.0
  0
LINE
  5
27F
330
37
100
AcDbEntity
  8
Sichtbare Kanten(TC_020513_DIN)
100
AcDbLine
 10
120.4127751470781
 20
99.44280618466009
 30
0.0
 11
117.1127751470782
 21
99.44280618466009
 31
0.0
  0
LINE
  5
280
330
37
100
AcDbEntity
  8
Sichtbare Kanten(TC_020513_DIN)
100
AcDbLine
 10
62.11277514707817
 20
99.44280618466009
 30
0.0
 11
117.1127751470782
 21
99.44280618466009
 31
0.0
  0
LINE
  5
281
330
37
100
AcDbEntity
  8
Sichtbare Kanten(TC_020513_DIN)
100
AcDbLine
 10
58.11277514707818
 20
100.1428061846601
 30
0.0
 11
58.81277514707817
 21
99.44280618466009
 31
0.0
  0
LINE
  5
282
330
37
100
AcDbEntity
  8
Sichtbare Kanten(TC_020513_DIN)
100
AcDbLine
 10
62.11277514707817
 20
99.44280618466009
 30
0.0
 11
58.81277514707814
 21
99.44280618466009
 31
0.0
  0
LINE
  5
283
330
37
100
AcDbEntity
  8
Sichtbare Kanten(TC_020513_DIN)
100
AcDbLine
 10
121.1127751470782
 20
98.64280618466009
 30
0.0
 11
120.4127751470781
 21
99.34280618466008
 31
0.0
  0
LINE
  5
284
330
37
100
AcDbEntity
  8
Sichtbare Kanten(TC_020513_DIN)
100
AcDbLine
 10
117.1127751470782
 20
99.34280618466008
 30
0.0
 11
120.4127751470781
 21
99.34280618466008
 31
0.0
  0
LINE
  5
285
330
37
100
AcDbEntity
  8
Sichtbare Kanten(TC_020513_DIN)
100
AcDbLine
 10
121.1127751470782
 20
98.64280618466009
 30
0.0
 11
117.1127751470782
 21
98.64280618466009
 31
0.0
  0
LINE
  5
286
330
37
100
AcDbEntity
  8
Sichtbare Kanten(TC_020513_DIN)
100
AcDbLine
 10
117.1127751470782
 20
99.34280618466008
 30
0.0
 11
62.11277514707817
 21
99.34280618466008
 31
0.0
  0
LINE
  5
287
330
37
100
AcDbEntity
  8
Sichtbare Kanten(TC_020513_DIN)
100
AcDbLine
 10
58.81277514707815
 20
99.34280618466008
 30
0.0
 11
62.11277514707818
 21
99.34280618466008
 31
0.0
  0
LINE
  5
288
330
37
100
AcDbEntity
  8
Sichtbare Kanten(TC_020513_DIN)
100
AcDbLine
 10
58.81277514707817
 20
99.34280618466008
 30
0.0
 11
58.11277514707818
 21
98.64280618466009
 31
0.0
  0
LINE
  5
289
330
37
100
AcDbEntity
  8
Sichtbare Kanten(TC_020513_DIN)
100
AcDbLine
 10
62.11277514707817
 20
98.64280618466009
 30
0.0
 11
58.11277514707818
 21
98.64280618466009
 31
0.0
  0
LINE
  5
28A
330
37
100
AcDbEntity
  8
Sichtbare Kanten(TC_020513_DIN)
100
AcDbLine
 10
58.10777514707819
 20
85.89280618466009
 30
0.0
 11
62.10777514707817
 21
85.89280618466009
 31
0.0
  0
LINE
  5
28B
330
37
100
AcDbEntity
  8
Sichtbare Kanten(TC_020513_DIN)
100
AcDbLine
 10
117.1177751470782
 20
85.89280618466009
 30
0.0
 11
62.10777514707817
 21
85.89280618466009
 31
0.0
  0
LINE
  5
28C
330
37
100
AcDbEntity
  8
Sichtbare Kanten(TC_020513_DIN)
100
AcDbLine
 10
117.1177751470782
 20
85.89280618466009
 30
0.0
 11
121.1177751470782
 21
85.89280618466009
 31
0.0
  0
LINE
  5
28D
330
37
100
AcDbEntity
  8
Sichtbare Kanten(TC_020513_DIN)
100
AcDbLine
 10
58.10777514707817
 20
82.89280618466008
 30
0.0
 11
58.10777514707817
 21
85.89280618466009
 31
0.0
  0
LINE
  5
28E
330
37
100
AcDbEntity
  8
Sichtbare Kanten(TC_020513_DIN)
100
AcDbLine
 10
121.1177751470782
 20
82.89280618466008
 30
0.0
 11
121.1177751470782
 21
85.89280618466009
 31
0.0
  0
LINE
  5
28F
330
37
100
AcDbEntity
  8
Sichtbare Kanten(TC_020513_DIN)
100
AcDbLine
 10
117.1177751470782
 20
82.89280618466008
 30
0.0
 11
121.1177751470782
 21
82.89280618466008
 31
0.0
  0
LINE
  5
290
330
37
100
AcDbEntity
  8
Sichtbare Kanten(TC_020513_DIN)
100
AcDbLine
 10
117.1177751470782
 20
82.89280618466008
 30
0.0
 11
62.10777514707817
 21
82.89280618466008
 31
0.0
  0
LINE
  5
291
330
37
100
AcDbEntity
  8
Sichtbare Kanten(TC_020513_DIN)
100
AcDbLine
 10
58.10777514707819
 20
82.89280618466008
 30
0.0
 11
62.10777514707817
 21
82.89280618466008
 31
0.0
  0
LINE
  5
292
330
37
100
AcDbEntity
  8
Sichtbare Kanten(TC_020513_DIN)
100
AcDbLine
 10
218.2080623226937
 20
161.8928061846601
 30
0.0
 11
194.2080623226937
 21
161.8928061846601
 31
0.0
  0
LINE
  5
293
330
37
100
AcDbEntity
  8
Sichtbare Kanten(TC_020513_DIN)
100
AcDbLine
 10
194.2080623226937
 20
147.3928061846601
 30
0.0
 11
194.2080623226937
 21
161.8928061846601
 31
0.0
  0
LINE
  5
294
330
37
100
AcDbEntity
  8
Sichtbare Kanten(TC_020513_DIN)
100
AcDbLine
 10
218.2080623226937
 20
147.3928061846601
 30
0.0
 11
218.2080623226937
 21
161.8928061846601
 31
0.0
  0
POLYLINE
  5
295
330
37
100
AcDbEntity
  8
Sichtbare Kanten(TC_020513_DIN)
100
AcDb2dPolyline
 66
     1
 10
0.0
 20
0.0
 30
0.0
 70
   128
  0
VERTEX
  5
296
330
295
100
AcDbEntity
  8
Sichtbare Kanten(TC_020513_DIN)
100
AcDbVertex
100
AcDb2dVertex
 10
217.8976048546516
 20
114.1452285174237
 30
0.0
  0
VERTEX
  5
297
330
295
100
AcDbEntity
  8
Sichtbare Kanten(TC_020513_DIN)
100
AcDbVertex
100
AcDb2dVertex
 10
217.9308356362068
 20
114.1159578684674
 30
0.0
  0
VERTEX
  5
299
330
295
100
AcDbEntity
  8
Sichtbare Kanten(TC_020513_DIN)
100
AcDbVertex
100
AcDb2dVertex
 10
217.9640342312538
 20
114.0864631060468
 30
0.0
  0
VERTEX
  5
29A
330
295
100
AcDbEntity
  8
Sichtbare Kanten(TC_020513_DIN)
100
AcDbVertex
100
AcDb2dVertex
 10
217.9971946793282
 20
114.0567585352765
 30
0.0
  0
VERTEX
  5
29B
330
295
100
AcDbEntity
  8
Sichtbare Kanten(TC_020513_DIN)
100
AcDbVertex
100
AcDb2dVertex
 10
218.0303122120582
 20
114.0268703822004
 30
0.0
  0
VERTEX
  5
29C
330
295
100
AcDbEntity
  8
Sichtbare Kanten(TC_020513_DIN)
100
AcDbVertex
100
AcDb2dVertex
 10
218.0633808689796
 20
113.996812951933
 30
0.0
  0
VERTEX
  5
29D
330
295
100
AcDbEntity
  8
Sichtbare Kanten(TC_020513_DIN)
100
AcDbVertex
100
AcDb2dVertex
 10
218.0963946896278
 20
113.9666124705182
 30
0.0
  0
VERTEX
  5
29E
330
295
100
AcDbEntity
  8
Sichtbare Kanten(TC_020513_DIN)
100
AcDbVertex
100
AcDb2dVertex
 10
218.129351289817
 20
113.9362832430707
 30
0.0
  0
VERTEX
  5
29F
330
295
100
AcDbEntity
  8
Sichtbare Kanten(TC_020513_DIN)
100
AcDbVertex
100
AcDb2dVertex
 10
218.162242324897
 20
113.9058514956342
 30
0.0
  0
VERTEX
  5
2A0
330
295
100
AcDbEntity
  8
Sichtbare Kanten(TC_020513_DIN)
100
AcDbVertex
100
AcDb2dVertex
 10
218.195064218589
 20
113.875336301695
 30
0.0
  0
VERTEX
  5
2A1
330
295
100
AcDbEntity
  8
Sichtbare Kanten(TC_020513_DIN)
100
AcDbVertex
100
AcDb2dVertex
 10
218.2278110104286
 20
113.8447543505536
 30
0.0
  0
VERTEX
  5
2A2
330
295
100
AcDbEntity
  8
Sichtbare Kanten(TC_020513_DIN)
100
AcDbVertex
100
AcDb2dVertex
 10
218.2604779320442
 20
113.814129484068
 30
0.0
  0
VERTEX
  5
2A3
330
295
100
AcDbEntity
  8
Sichtbare Kanten(TC_020513_DIN)
100
AcDbVertex
100
AcDb2dVertex
 10
218.2930590229713
 20
113.7834807757245
 30
0.0
  0
VERTEX
  5
2A4
330
295
100
AcDbEntity
  8
Sichtbare Kanten(TC_020513_DIN)
100
AcDbVertex
100
AcDb2dVertex
 10
218.3255483227455
 20
113.752832067381
 30
0.0
  0
VERTEX
  5
2A5
330
295
100
AcDbEntity
  8
Sichtbare Kanten(TC_020513_DIN)
100
AcDbVertex
100
AcDb2dVertex
 10
218.3579207974159
 20
113.7222215060102
 30
0.0
  0
VERTEX
  5
2A6
330
295
100
AcDbEntity
  8
Sichtbare Kanten(TC_020513_DIN)
100
AcDbVertex
100
AcDb2dVertex
 10
218.3901692944252
 20
113.6916800860273
 30
0.0
  0
VERTEX
  5
2A7
330
295
100
AcDbEntity
  8
Sichtbare Kanten(TC_020513_DIN)
100
AcDbVertex
100
AcDb2dVertex
 10
218.4222902374946
 20
113.6612292651044
 30
0.0
  0
VERTEX
  5
2A8
330
295
100
AcDbEntity
  8
Sichtbare Kanten(TC_020513_DIN)
100
AcDbVertex
100
AcDb2dVertex
 10
218.4542788582527
 20
113.6308976534711
 30
0.0
  0
VERTEX
  5
2A9
330
295
100
AcDbEntity
  8
Sichtbare Kanten(TC_020513_DIN)
100
AcDbVertex
100
AcDb2dVertex
 10
218.4861315804207
 20
113.6007090929853
 30
0.0
  0
VERTEX
  5
2AA
330
295
100
AcDbEntity
  8
Sichtbare Kanten(TC_020513_DIN)
100
AcDbVertex
100
AcDb2dVertex
 10
218.5178460198128
 20
113.5706921938764
 30
0.0
  0
VERTEX
  5
2AB
330
295
100
AcDbEntity
  8
Sichtbare Kanten(TC_020513_DIN)
100
AcDbVertex
100
AcDb2dVertex
 10
218.5494174080574
 20
113.5408684138166
 30
0.0
  0
VERTEX
  5
2AC
330
295
100
AcDbEntity
  8
Sichtbare Kanten(TC_020513_DIN)
100
AcDbVertex
100
AcDb2dVertex
 10
218.5808421688759
 20
113.5112639788495
 30
0.0
  0
VERTEX
  5
2AD
330
295
100
AcDbEntity
  8
Sichtbare Kanten(TC_020513_DIN)
100
AcDbVertex
100
AcDb2dVertex
 10
218.6121167259895
 20
113.481905115019
 30
0.0
  0
VERTEX
  5
2AE
330
295
100
AcDbEntity
  8
Sichtbare Kanten(TC_020513_DIN)
100
AcDbVertex
100
AcDb2dVertex
 10
218.6432375031197
 20
113.4528156641828
 30
0.0
  0
VERTEX
  5
2AF
330
295
100
AcDbEntity
  8
Sichtbare Kanten(TC_020513_DIN)
100
AcDbVertex
100
AcDb2dVertex
 10
218.6741997318947
 20
113.4240242365705
 30
0.0
  0
SEQEND
  5
298
330
295
100
AcDbEntity
  8
Sichtbare Kanten(TC_020513_DIN)
  0
POLYLINE
  5
2B0
330
37
100
AcDbEntity
  8
Sichtbare Kanten(TC_020513_DIN)
100
AcDb2dPolyline
 66
     1
 10
0.0
 20
0.0
 30
0.0
 70
   128
  0
VERTEX
  5
2B1
330
2B0
100
AcDbEntity
  8
Sichtbare Kanten(TC_020513_DIN)
100
AcDbVertex
100
AcDb2dVertex
 10
193.7419249134742
 20
113.4240242365705
 30
0.0
  0
VERTEX
  5
2B2
330
2B0
100
AcDbEntity
  8
Sichtbare Kanten(TC_020513_DIN)
100
AcDbVertex
100
AcDb2dVertex
 10
193.7728966789924
 20
113.4528275851117
 30
0.0
  0
VERTEX
  5
2B4
330
2B0
100
AcDbEntity
  8
Sichtbare Kanten(TC_020513_DIN)
100
AcDbVertex
100
AcDb2dVertex
 10
193.8040341454231
 20
113.4819361094342
 30
0.0
  0
VERTEX
  5
2B5
330
2B0
100
AcDbEntity
  8
Sichtbare Kanten(TC_020513_DIN)
100
AcDbVertex
100
AcDb2dVertex
 10
193.8353241997444
 20
113.5113116625653
 30
0.0
  0
VERTEX
  5
2B6
330
2B0
100
AcDbEntity
  8
Sichtbare Kanten(TC_020513_DIN)
100
AcDbVertex
100
AcDb2dVertex
 10
193.8667596893989
 20
113.5409280184613
 30
0.0
  0
VERTEX
  5
2B7
330
2B0
100
AcDbEntity
  8
Sichtbare Kanten(TC_020513_DIN)
100
AcDbVertex
100
AcDb2dVertex
 10
193.8983406143867
 20
113.5707589510785
 30
0.0
  0
VERTEX
  5
2B8
330
2B0
100
AcDbEntity
  8
Sichtbare Kanten(TC_020513_DIN)
100
AcDbVertex
100
AcDb2dVertex
 10
193.9300598221504
 20
113.600780618559
 30
0.0
  0
VERTEX
  5
2B9
330
2B0
100
AcDbEntity
  8
Sichtbare Kanten(TC_020513_DIN)
100
AcDbVertex
100
AcDb2dVertex
 10
193.961916120597
 20
113.6309691790448
 30
0.0
  0
VERTEX
  5
2BA
330
2B0
100
AcDbEntity
  8
Sichtbare Kanten(TC_020513_DIN)
100
AcDbVertex
100
AcDb2dVertex
 10
193.9939035492622
 20
113.6612960223065
 30
0.0
  0
VERTEX
  5
2BB
330
2B0
100
AcDbEntity
  8
Sichtbare Kanten(TC_020513_DIN)
100
AcDbVertex
100
AcDb2dVertex
 10
194.0260197239601
 20
113.691739690672
 30
0.0
  0
VERTEX
  5
2BC
330
2B0
100
AcDbEntity
  8
Sichtbare Kanten(TC_020513_DIN)
100
AcDbVertex
100
AcDb2dVertex
 10
194.058261068412
 20
113.7222739580976
 30
0.0
  0
VERTEX
  5
2BD
330
2B0
100
AcDbEntity
  8
Sichtbare Kanten(TC_020513_DIN)
100
AcDbVertex
100
AcDb2dVertex
 10
194.0906216221534
 20
113.7528749827253
 30
0.0
  0
VERTEX
  5
2BE
330
2B0
100
AcDbEntity
  8
Sichtbare Kanten(TC_020513_DIN)
100
AcDbVertex
100
AcDb2dVertex
 10
194.1230990009986
 20
113.7835141543256
 30
0.0
  0
VERTEX
  5
2BF
330
2B0
100
AcDbEntity
  8
Sichtbare Kanten(TC_020513_DIN)
100
AcDbVertex
100
AcDb2dVertex
 10
194.1556788998328
 20
113.8141652468549
 30
0.0
  0
VERTEX
  5
2C0
330
2B0
100
AcDbEntity
  8
Sichtbare Kanten(TC_020513_DIN)
100
AcDbVertex
100
AcDb2dVertex
 10
194.1883446293556
 20
113.8447924975263
 30
0.0
  0
VERTEX
  5
2C1
330
2B0
100
AcDbEntity
  8
Sichtbare Kanten(TC_020513_DIN)
100
AcDbVertex
100
AcDb2dVertex
 10
194.2210914211952
 20
113.8753792170392
 30
0.0
  0
VERTEX
  5
2C2
330
2B0
100
AcDbEntity
  8
Sichtbare Kanten(TC_020513_DIN)
100
AcDbVertex
100
AcDb2dVertex
 10
194.2539133148872
 20
113.9059015635358
 30
0.0
  0
VERTEX
  5
2C3
330
2B0
100
AcDbEntity
  8
Sichtbare Kanten(TC_020513_DIN)
100
AcDbVertex
100
AcDb2dVertex
 10
194.2868079262458
 20
113.9363380793439
 30
0.0
  0
VERTEX
  5
2C4
330
2B0
100
AcDbEntity
  8
Sichtbare Kanten(TC_020513_DIN)
100
AcDbVertex
100
AcDb2dVertex
 10
194.3197681027137
 20
113.9666696909772
 30
0.0
  0
VERTEX
  5
2C5
330
2B0
100
AcDbEntity
  8
Sichtbare Kanten(TC_020513_DIN)
100
AcDbVertex
100
AcDb2dVertex
 10
194.3527866917335
 20
113.9968749407636
 30
0.0
  0
VERTEX
  5
2C6
330
2B0
100
AcDbEntity
  8
Sichtbare Kanten(TC_020513_DIN)
100
AcDbVertex
100
AcDb2dVertex
 10
194.3858565407478
 20
114.0269252184735
 30
0.0
  0
VERTEX
  5
2C7
330
2B0
100
AcDbEntity
  8
Sichtbare Kanten(TC_020513_DIN)
100
AcDbVertex
100
AcDb2dVertex
 10
194.4189704971992
 20
114.0568062189923
 30
0.0
  0
VERTEX
  5
2C8
330
2B0
100
AcDbEntity
  8
Sichtbare Kanten(TC_020513_DIN)
100
AcDbVertex
100
AcDb2dVertex
 10
194.4521226006233
 20
114.0864964846479
 30
0.0
  0
VERTEX
  5
2C9
330
2B0
100
AcDbEntity
  8
Sichtbare Kanten(TC_020513_DIN)
100
AcDbVertex
100
AcDb2dVertex
 10
194.4853080826484
 20
114.1159769419538
 30
0.0
  0
VERTEX
  5
2CA
330
2B0
100
AcDbEntity
  8
Sichtbare Kanten(TC_020513_DIN)
100
AcDbVertex
100
AcDb2dVertex
 10
194.5185197907173
 20
114.1452285174237
 30
0.0
  0
SEQEND
  5
2B3
330
2B0
100
AcDbEntity
  8
Sichtbare Kanten(TC_020513_DIN)
  0
ARC
  5
2CB
330
37
100
AcDbEntity
  8
Sichtbare Kanten(TC_020513_DIN)
100
AcDbCircle
 10
223.2080623226847
 20
113.8928061846601
 30
0.0
 40
1.0
100
AcDbArc
 50
270.0
 51
0.0
  0
ARC
  5
2CC
330
37
100
AcDbEntity
  8
Sichtbare Kanten(TC_020513_DIN)
100
AcDbCircle
 10
189.2080623226847
 20
113.8928061846601
 30
0.0
 40
1.0
100
AcDbArc
 50
180.0
 51
270.0
  0
LINE
  5
2CD
330
37
100
AcDbEntity
  8
Sichtbare Kanten(TC_020513_DIN)
100
AcDbLine
 10
188.208062322685
 20
117.1428061846601
 30
0.0
 11
188.2080623226847
 21
113.8928061846601
 31
0.0
  0
ELLIPSE
  5
2CE
330
37
100
AcDbEntity
  8
Sichtbare Kanten(TC_020513_DIN)
100
AcDbEllipse
 10
189.2080623226849
 20
116.728592622287
 30
0.0
 11
-0.995977375396618
 21
0.4125473367060926
 31
0.0
210
0.0
220
0.0
230
0.9999999999999998
 40
0.2171994754621534
 41
4.802114388360621
 42
6.19345989920412
  0
LINE
  5
2CF
330
37
100
AcDbEntity
  8
Sichtbare Kanten(TC_020513_DIN)
100
AcDbLine
 10
188.208062322685
 20
117.1428061846601
 30
0.0
 11
188.2241204580809
 21
117.1588643200561
 31
0.0
  0
LINE
  5
2D0
330
37
100
AcDbEntity
  8
Sichtbare Kanten(TC_020513_DIN)
100
AcDbLine
 10
224.1920041872889
 20
117.1588643200561
 30
0.0
 11
223.192004187289
 21
118.1588643200561
 31
0.0
  0
ELLIPSE
  5
2D1
330
37
100
AcDbEntity
  8
Sichtbare Kanten(TC_020513_DIN)
100
AcDbEllipse
 10
222.2080623226851
 20
117.728592622287
 30
0.0
 11
0.9959773753966704
 21
0.4125473367059909
 31
0.0
210
0.0
220
0.0
230
1.0
 40
0.2171994754623775
 41
0.0897254079759868
 42
1.481070918819503
  0
ELLIPSE
  5
2D2
330
37
100
AcDbEntity
  8
Sichtbare Kanten(TC_020513_DIN)
100
AcDbEllipse
 10
223.2080623226849
 20
116.728592622287
 30
0.0
 11
0.9959773753966693
 21
0.4125473367059915
 31
0.0
210
0.0
220
0.0
230
0.9999999999999998
 40
0.2171994754623775
 41
0.0897254079759815
 42
1.481070918819503
  0
LINE
  5
2D3
330
37
100
AcDbEntity
  8
Sichtbare Kanten(TC_020513_DIN)
100
AcDbLine
 10
189.224120458081
 20
118.1588643200561
 30
0.0
 11
188.2241204580809
 21
117.1588643200561
 31
0.0
  0
ELLIPSE
  5
2D4
330
37
100
AcDbEntity
  8
Sichtbare Kanten(TC_020513_DIN)
100
AcDbEllipse
 10
190.208062322685
 20
117.728592622287
 30
0.0
 11
0.9959773753966148
 21
-0.4125473367061033
 31
0.0
210
0.0
220
0.0
230
1.0
 40
0.2171994754621743
 41
1.660521734770839
 42
3.051867245614383
  0
LINE
  5
2D5
330
37
100
AcDbEntity
  8
Sichtbare Kanten(TC_020513_DIN)
100
AcDbLine
 10
223.2080623226851
 20
118.1428061846601
 30
0.0
 11
223.2080623226869
 21
142.1655158175235
 31
0.0
  0
ELLIPSE
  5
2D6
330
37
100
AcDbEntity
  8
Sichtbare Kanten(TC_020513_DIN)
100
AcDbEllipse
 10
222.208062322687
 20
142.5570197470331
 30
0.0
 11
0.9959773753966175
 21
-0.4125473367061132
 31
0.0
210
0.0
220
0.0
230
0.9999999999999998
 40
0.2171994754621616
 41
0.0897254079759892
 42
1.660521734770871
  0
LINE
  5
2D7
330
37
100
AcDbEntity
  8
Sichtbare Kanten(TC_020513_DIN)
100
AcDbLine
 10
189.2080623226869
 20
142.1655158175235
 30
0.0
 11
189.208062322685
 21
118.1428061846601
 31
0.0
  0
ELLIPSE
  5
2D8
330
37
100
AcDbEntity
  8
Sichtbare Kanten(TC_020513_DIN)
100
AcDbEllipse
 10
190.2080623226869
 20
142.5570197470331
 30
0.0
 11
0.9959773753966729
 21
0.4125473367060007
 31
0.0
210
0.0
220
0.0
230
1.0
 40
0.2171994754623649
 41
1.481070918819471
 42
3.051867245614363
  0
LINE
  5
2D9
330
37
100
AcDbEntity
  8
Sichtbare Kanten(TC_020513_DIN)
100
AcDbLine
 10
188.208062322687
 20
143.1428061846601
 30
0.0
 11
189.2080623226869
 21
142.1428061846601
 31
0.0
  0
ELLIPSE
  5
2DA
330
37
100
AcDbEntity
  8
Sichtbare Kanten(TC_020513_DIN)
100
AcDbEllipse
 10
189.208062322687
 20
143.5570197470331
 30
0.0
 11
-0.995977375396675
 21
-0.4125473367059856
 31
0.0
210
0.0
220
0.0
230
1.0
 40
0.2171994754623803
 41
4.622663572409225
 42
6.193459899204154
  0
LINE
  5
2DB
330
37
100
AcDbEntity
  8
Sichtbare Kanten(TC_020513_DIN)
100
AcDbLine
 10
188.208062322687
 20
143.1428061846601
 30
0.0
 11
188.208062322687
 21
143.1655158175235
 31
0.0
  0
ARC
  5
2DC
330
37
100
AcDbEntity
  8
Sichtbare Kanten(TC_020513_DIN)
100
AcDbCircle
 10
223.2080623226873
 20
146.3928061846601
 30
0.0
 40
1.0
100
AcDbArc
 50
0.0
 51
90.0
  0
ARC
  5
2DD
330
37
100
AcDbEntity
  8
Sichtbare Kanten(TC_020513_DIN)
100
AcDbCircle
 10
189.2080623226872
 20
146.3928061846601
 30
0.0
 40
0.9999999999999964
100
AcDbArc
 50
90.0
 51
180.0
  0
LINE
  5
2DE
330
37
100
AcDbEntity
  8
Sichtbare Kanten(TC_020513_DIN)
100
AcDbLine
 10
223.2080623226873
 20
147.3928061846601
 30
0.0
 11
189.2080623226872
 21
147.3928061846601
 31
0.0
  0
LINE
  5
2DF
330
37
100
AcDbEntity
  8
Sichtbare Kanten(TC_020513_DIN)
100
AcDbLine
 10
188.2080623226872
 20
146.3928061846601
 30
0.0
 11
188.208062322687
 21
143.1655158175235
 31
0.0
  0
LINE
  5
2E0
330
37
100
AcDbEntity
  8
Sichtbare Kanten(TC_020513_DIN)
100
AcDbLine
 10
224.208062322687
 20
143.1655158175235
 30
0.0
 11
224.2080623226872
 21
146.3928061846601
 31
0.0
  0
ELLIPSE
  5
2E1
330
37
100
AcDbEntity
  8
Sichtbare Kanten(TC_020513_DIN)
100
AcDbEllipse
 10
223.208062322687
 20
143.5570197470331
 30
0.0
 11
0.9959773753966175
 21
-0.4125473367060972
 31
0.0
210
0.0
220
0.0
230
0.9999999999999998
 40
0.2171994754621704
 41
0.0897254079759211
 42
1.660521734770836
  0
LINE
  5
2E2
330
37
100
AcDbEntity
  8
Sichtbare Kanten(TC_020513_DIN)
100
AcDbLine
 10
223.208062322687
 20
142.1428061846601
 30
0.0
 11
224.2080623226871
 21
143.1428061846601
 31
0.0
  0
LINE
  5
2E3
330
37
100
AcDbEntity
  8
Sichtbare Kanten(TC_020513_DIN)
100
AcDbLine
 10
224.208062322687
 20
143.1655158175235
 30
0.0
 11
224.208062322687
 21
143.1428061846601
 31
0.0
  0
LINE
  5
2E4
330
37
100
AcDbEntity
  8
Sichtbare Kanten(TC_020513_DIN)
100
AcDbLine
 10
224.2080623226847
 20
113.8928061846601
 30
0.0
 11
224.208062322685
 21
117.1428061846601
 31
0.0
  0
LINE
  5
2E5
330
37
100
AcDbEntity
  8
Sichtbare Kanten(TC_020513_DIN)
100
AcDbLine
 10
224.1920041872889
 20
117.1588643200561
 30
0.0
 11
224.208062322685
 21
117.1428061846601
 31
0.0
  0
LINE
  5
2E6
330
37
100
AcDbEntity
  8
Sichtbare Kanten(TC_020513_DIN)
100
AcDbLine
 10
189.2080623226847
 20
112.8928061846601
 30
0.0
 11
192.5619831534219
 21
112.8928061846601
 31
0.0
  0
POLYLINE
  5
2E7
330
37
100
AcDbEntity
  8
Sichtbare Kanten(TC_020513_DIN)
100
AcDb2dPolyline
 66
     1
 10
0.0
 20
0.0
 30
0.0
 70
   128
  0
VERTEX
  5
2E8
330
2E7
100
AcDbEntity
  8
Sichtbare Kanten(TC_020513_DIN)
100
AcDbVertex
100
AcDb2dVertex
 10
193.7419249134742
 20
113.4240242365705
 30
0.0
  0
VERTEX
  5
2E9
330
2E7
100
AcDbEntity
  8
Sichtbare Kanten(TC_020513_DIN)
100
AcDbVertex
100
AcDb2dVertex
 10
193.6954630928719
 20
113.3826276186811
 30
0.0
  0
VERTEX
  5
2EB
330
2E7
100
AcDbEntity
  8
Sichtbare Kanten(TC_020513_DIN)
100
AcDbVertex
100
AcDb2dVertex
 10
193.6479462700569
 20
113.343326700102
 30
0.0
  0
VERTEX
  5
2EC
330
2E7
100
AcDbEntity
  8
Sichtbare Kanten(TC_020513_DIN)
100
AcDbVertex
100
AcDb2dVertex
 10
193.5999335365974
 20
113.3062001589643
 30
0.0
  0
VERTEX
  5
2ED
330
2E7
100
AcDbEntity
  8
Sichtbare Kanten(TC_020513_DIN)
100
AcDbVertex
100
AcDb2dVertex
 10
193.5519875603401
 20
113.2713242892133
 30
0.0
  0
VERTEX
  5
2EE
330
2E7
100
AcDbEntity
  8
Sichtbare Kanten(TC_020513_DIN)
100
AcDbVertex
100
AcDb2dVertex
 10
193.5041965561592
 20
113.2384606722699
 30
0.0
  0
VERTEX
  5
2EF
330
2E7
100
AcDbEntity
  8
Sichtbare Kanten(TC_020513_DIN)
100
AcDbVertex
100
AcDb2dVertex
 10
193.4554316120827
 20
113.2066770914899
 30
0.0
  0
VERTEX
  5
2F0
330
2E7
100
AcDbEntity
  8
Sichtbare Kanten(TC_020513_DIN)
100
AcDbVertex
100
AcDb2dVertex
 10
193.4057451801979
 20
113.1759735468732
 30
0.0
  0
VERTEX
  5
2F1
330
2E7
100
AcDbEntity
  8
Sichtbare Kanten(TC_020513_DIN)
100
AcDbVertex
100
AcDb2dVertex
 10
193.3552886563027
 20
113.1464311007367
 30
0.0
  0
VERTEX
  5
2F2
330
2E7
100
AcDbEntity
  8
Sichtbare Kanten(TC_020513_DIN)
100
AcDbVertex
100
AcDb2dVertex
 10
193.3042193966591
 20
113.11812366284
 30
0.0
  0
VERTEX
  5
2F3
330
2E7
100
AcDbEntity
  8
Sichtbare Kanten(TC_020513_DIN)
100
AcDbVertex
100
AcDb2dVertex
 10
193.2526899891579
 20
113.0911275271283
 30
0.0
  0
VERTEX
  5
2F4
330
2E7
100
AcDbEntity
  8
Sichtbare Kanten(TC_020513_DIN)
100
AcDbVertex
100
AcDb2dVertex
 10
193.2008565979684
 20
113.0655237559186
 30
0.0
  0
VERTEX
  5
2F5
330
2E7
100
AcDbEntity
  8
Sichtbare Kanten(TC_020513_DIN)
100
AcDbVertex
100
AcDb2dVertex
 10
193.1488730030739
 20
113.0413862589704
 30
0.0
  0
VERTEX
  5
2F6
330
2E7
100
AcDbEntity
  8
Sichtbare Kanten(TC_020513_DIN)
100
AcDbVertex
100
AcDb2dVertex
 10
193.0968929844583
 20
113.0187960986005
 30
0.0
  0
VERTEX
  5
2F7
330
2E7
100
AcDbEntity
  8
Sichtbare Kanten(TC_020513_DIN)
100
AcDbVertex
100
AcDb2dVertex
 10
193.0450715141977
 20
112.9978271845685
 30
0.0
  0
VERTEX
  5
2F8
330
2E7
100
AcDbEntity
  8
Sichtbare Kanten(TC_020513_DIN)
100
AcDbVertex
100
AcDb2dVertex
 10
192.993558795997
 20
112.9785748843061
 30
0.0
  0
VERTEX
  5
2F9
330
2E7
100
AcDbEntity
  8
Sichtbare Kanten(TC_020513_DIN)
100
AcDbVertex
100
AcDb2dVertex
 10
192.9424692707742
 20
112.9611274126874
 30
0.0
  0
VERTEX
  5
2FA
330
2E7
100
AcDbEntity
  8
Sichtbare Kanten(TC_020513_DIN)
100
AcDbVertex
100
AcDb2dVertex
 10
192.8919114189828
 20
112.9455372218
 30
0.0
  0
VERTEX
  5
2FB
330
2E7
100
AcDbEntity
  8
Sichtbare Kanten(TC_020513_DIN)
100
AcDbVertex
100
AcDb2dVertex
 10
192.8419949131692
 20
112.9318591479169
 30
0.0
  0
VERTEX
  5
2FC
330
2E7
100
AcDbEntity
  8
Sichtbare Kanten(TC_020513_DIN)
100
AcDbVertex
100
AcDb2dVertex
 10
192.7928258496011
 20
112.9201432589399
 30
0.0
  0
VERTEX
  5
2FD
330
2E7
100
AcDbEntity
  8
Sichtbare Kanten(TC_020513_DIN)
100
AcDbVertex
100
AcDb2dVertex
 10
192.7445139008249
 20
112.9104396227704
 30
0.0
  0
VERTEX
  5
2FE
330
2E7
100
AcDbEntity
  8
Sichtbare Kanten(TC_020513_DIN)
100
AcDbVertex
100
AcDb2dVertex
 10
192.6971651631083
 20
112.9028030756818
 30
0.0
  0
VERTEX
  5
2FF
330
2E7
100
AcDbEntity
  8
Sichtbare Kanten(TC_020513_DIN)
100
AcDbVertex
100
AcDb2dVertex
 10
192.6508881169047
 20
112.8972836855756
 30
0.0
  0
VERTEX
  5
300
330
2E7
100
AcDbEntity
  8
Sichtbare Kanten(TC_020513_DIN)
100
AcDbVertex
100
AcDb2dVertex
 10
192.6057912426676
 20
112.8939339045392
 30
0.0
  0
VERTEX
  5
301
330
2E7
100
AcDbEntity
  8
Sichtbare Kanten(TC_020513_DIN)
100
AcDbVertex
100
AcDb2dVertex
 10
192.5619830208506
 20
112.8928061846601
 30
0.0
  0
SEQEND
  5
2EA
330
2E7
100
AcDbEntity
  8
Sichtbare Kanten(TC_020513_DIN)
  0
POLYLINE
  5
302
330
37
100
AcDbEntity
  8
Sichtbare Kanten(TC_020513_DIN)
100
AcDb2dPolyline
 66
     1
 10
0.0
 20
0.0
 30
0.0
 70
   128
  0
VERTEX
  5
303
330
302
100
AcDbEntity
  8
Sichtbare Kanten(TC_020513_DIN)
100
AcDbVertex
100
AcDb2dVertex
 10
219.8541416245189
 20
112.8928061846601
 30
0.0
  0
VERTEX
  5
304
330
302
100
AcDbEntity
  8
Sichtbare Kanten(TC_020513_DIN)
100
AcDbVertex
100
AcDb2dVertex
 10
219.8103334027018
 20
112.8939339045392
 30
0.0
  0
VERTEX
  5
306
330
302
100
AcDbEntity
  8
Sichtbare Kanten(TC_020513_DIN)
100
AcDbVertex
100
AcDb2dVertex
 10
219.7652365284648
 20
112.8972836855756
 30
0.0
  0
VERTEX
  5
307
330
302
100
AcDbEntity
  8
Sichtbare Kanten(TC_020513_DIN)
100
AcDbVertex
100
AcDb2dVertex
 10
219.7189594822611
 20
112.9028030756818
 30
0.0
  0
VERTEX
  5
308
330
302
100
AcDbEntity
  8
Sichtbare Kanten(TC_020513_DIN)
100
AcDbVertex
100
AcDb2dVertex
 10
219.6716107445444
 20
112.9104396227704
 30
0.0
  0
VERTEX
  5
309
330
302
100
AcDbEntity
  8
Sichtbare Kanten(TC_020513_DIN)
100
AcDbVertex
100
AcDb2dVertex
 10
219.6232987957682
 20
112.9201432589399
 30
0.0
  0
VERTEX
  5
30A
330
302
100
AcDbEntity
  8
Sichtbare Kanten(TC_020513_DIN)
100
AcDbVertex
100
AcDb2dVertex
 10
219.5741297322
 20
112.9318591479169
 30
0.0
  0
VERTEX
  5
30B
330
302
100
AcDbEntity
  8
Sichtbare Kanten(TC_020513_DIN)
100
AcDbVertex
100
AcDb2dVertex
 10
219.5242132263864
 20
112.9455372218
 30
0.0
  0
VERTEX
  5
30C
330
302
100
AcDbEntity
  8
Sichtbare Kanten(TC_020513_DIN)
100
AcDbVertex
100
AcDb2dVertex
 10
219.4736553745951
 20
112.9611274126874
 30
0.0
  0
VERTEX
  5
30D
330
302
100
AcDbEntity
  8
Sichtbare Kanten(TC_020513_DIN)
100
AcDbVertex
100
AcDb2dVertex
 10
219.4225658493722
 20
112.9785748843061
 30
0.0
  0
VERTEX
  5
30E
330
302
100
AcDbEntity
  8
Sichtbare Kanten(TC_020513_DIN)
100
AcDbVertex
100
AcDb2dVertex
 10
219.3710531311715
 20
112.9978271845685
 30
0.0
  0
VERTEX
  5
30F
330
302
100
AcDbEntity
  8
Sichtbare Kanten(TC_020513_DIN)
100
AcDbVertex
100
AcDb2dVertex
 10
219.3192316609109
 20
113.0187960986005
 30
0.0
  0
VERTEX
  5
310
330
302
100
AcDbEntity
  8
Sichtbare Kanten(TC_020513_DIN)
100
AcDbVertex
100
AcDb2dVertex
 10
219.2672516422951
 20
113.0413862589704
 30
0.0
  0
VERTEX
  5
311
330
302
100
AcDbEntity
  8
Sichtbare Kanten(TC_020513_DIN)
100
AcDbVertex
100
AcDb2dVertex
 10
219.2152680474007
 20
113.0655237559186
 30
0.0
  0
VERTEX
  5
312
330
302
100
AcDbEntity
  8
Sichtbare Kanten(TC_020513_DIN)
100
AcDbVertex
100
AcDb2dVertex
 10
219.1634346562111
 20
113.0911275271283
 30
0.0
  0
VERTEX
  5
313
330
302
100
AcDbEntity
  8
Sichtbare Kanten(TC_020513_DIN)
100
AcDbVertex
100
AcDb2dVertex
 10
219.11190524871
 20
113.11812366284
 30
0.0
  0
VERTEX
  5
314
330
302
100
AcDbEntity
  8
Sichtbare Kanten(TC_020513_DIN)
100
AcDbVertex
100
AcDb2dVertex
 10
219.0608359890664
 20
113.1464311007367
 30
0.0
  0
VERTEX
  5
315
330
302
100
AcDbEntity
  8
Sichtbare Kanten(TC_020513_DIN)
100
AcDbVertex
100
AcDb2dVertex
 10
219.0103794651711
 20
113.1759735468732
 30
0.0
  0
VERTEX
  5
316
330
302
100
AcDbEntity
  8
Sichtbare Kanten(TC_020513_DIN)
100
AcDbVertex
100
AcDb2dVertex
 10
218.9606930332864
 20
113.2066770914899
 30
0.0
  0
VERTEX
  5
317
330
302
100
AcDbEntity
  8
Sichtbare Kanten(TC_020513_DIN)
100
AcDbVertex
100
AcDb2dVertex
 10
218.9119280892098
 20
113.2384606722699
 30
0.0
  0
VERTEX
  5
318
330
302
100
AcDbEntity
  8
Sichtbare Kanten(TC_020513_DIN)
100
AcDbVertex
100
AcDb2dVertex
 10
218.8641370850289
 20
113.2713242892133
 30
0.0
  0
VERTEX
  5
319
330
302
100
AcDbEntity
  8
Sichtbare Kanten(TC_020513_DIN)
100
AcDbVertex
100
AcDb2dVertex
 10
218.8161911087715
 20
113.3062001589643
 30
0.0
  0
VERTEX
  5
31A
330
302
100
AcDbEntity
  8
Sichtbare Kanten(TC_020513_DIN)
100
AcDbVertex
100
AcDb2dVertex
 10
218.7681783753121
 20
113.343326700102
 30
0.0
  0
VERTEX
  5
31B
330
302
100
AcDbEntity
  8
Sichtbare Kanten(TC_020513_DIN)
100
AcDbVertex
100
AcDb2dVertex
 10
218.7206615524971
 20
113.3826276186811
 30
0.0
  0
VERTEX
  5
31C
330
302
100
AcDbEntity
  8
Sichtbare Kanten(TC_020513_DIN)
100
AcDbVertex
100
AcDb2dVertex
 10
218.6741997318947
 20
113.4240242365705
 30
0.0
  0
SEQEND
  5
305
330
302
100
AcDbEntity
  8
Sichtbare Kanten(TC_020513_DIN)
  0
LINE
  5
31D
330
37
100
AcDbEntity
  8
Sichtbare Kanten(TC_020513_DIN)
100
AcDbLine
 10
219.8541414919476
 20
112.8928061846601
 30
0.0
 11
223.2080623226847
 21
112.8928061846601
 31
0.0
  0
CIRCLE
  5
31E
330
37
100
AcDbEntity
  8
Sichtbare Kanten(TC_020513_DIN)
100
AcDbCircle
 10
206.208062322683
 20
90.39280618466007
 30
0.0
 40
1.800000000000001
  0
CIRCLE
  5
31F
330
37
100
AcDbEntity
  8
Sichtbare Kanten(TC_020513_DIN)
100
AcDbCircle
 10
206.2080623226843
 20
90.39280618466007
 30
0.0
 40
2.699999999999991
  0
LINE
  5
320
330
37
100
AcDbEntity
  8
Sichtbare Kanten(TC_020513_DIN)
100
AcDbLine
 10
220.9080623226856
 20
85.89280618466009
 30
0.0
 11
220.9080623226856
 21
98.64280618466009
 31
0.0
  0
LINE
  5
321
330
37
100
AcDbEntity
  8
Sichtbare Kanten(TC_020513_DIN)
100
AcDbLine
 10
191.5080623226855
 20
101.7428061846601
 30
0.0
 11
191.5080623226855
 21
101.8428061846601
 31
0.0
  0
LINE
  5
322
330
37
100
AcDbEntity
  8
Sichtbare Kanten(TC_020513_DIN)
100
AcDbLine
 10
191.5080623226855
 20
100.1428061846601
 30
0.0
 11
191.5080623226855
 21
100.2428061846601
 31
0.0
  0
LINE
  5
323
330
37
100
AcDbEntity
  8
Sichtbare Kanten(TC_020513_DIN)
100
AcDbLine
 10
191.5080623226855
 20
104.9428061846601
 30
0.0
 11
191.5080623226855
 21
112.8928061846601
 31
0.0
  0
LINE
  5
324
330
37
100
AcDbEntity
  8
Sichtbare Kanten(TC_020513_DIN)
100
AcDbLine
 10
191.5080623226855
 20
103.3428061846601
 30
0.0
 11
191.5080623226855
 21
103.4428061846601
 31
0.0
  0
LINE
  5
325
330
37
100
AcDbEntity
  8
Sichtbare Kanten(TC_020513_DIN)
100
AcDbLine
 10
191.5080623226855
 20
85.89280618466009
 30
0.0
 11
191.5080623226855
 21
98.64280618466009
 31
0.0
  0
LINE
  5
326
330
37
100
AcDbEntity
  8
Sichtbare Kanten(TC_020513_DIN)
100
AcDbLine
 10
220.9080623226856
 20
104.9428061846601
 30
0.0
 11
220.9080623226856
 21
112.8928061846601
 31
0.0
  0
LINE
  5
327
330
37
100
AcDbEntity
  8
Sichtbare Kanten(TC_020513_DIN)
100
AcDbLine
 10
220.9080623226856
 20
101.7428061846601
 30
0.0
 11
220.9080623226856
 21
101.8428061846601
 31
0.0
  0
LINE
  5
328
330
37
100
AcDbEntity
  8
Sichtbare Kanten(TC_020513_DIN)
100
AcDbLine
 10
220.9080623226856
 20
100.1428061846601
 30
0.0
 11
220.9080623226856
 21
100.2428061846601
 31
0.0
  0
LINE
  5
329
330
37
100
AcDbEntity
  8
Sichtbare Kanten(TC_020513_DIN)
100
AcDbLine
 10
220.9080623226856
 20
103.3428061846601
 30
0.0
 11
220.9080623226856
 21
103.4428061846601
 31
0.0
  0
LINE
  5
32A
330
37
100
AcDbEntity
  8
Sichtbare Kanten(TC_020513_DIN)
100
AcDbLine
 10
192.2080623226855
 20
104.2428061846601
 30
0.0
 11
191.5080623226855
 21
104.9428061846601
 31
0.0
  0
LINE
  5
32B
330
37
100
AcDbEntity
  8
Sichtbare Kanten(TC_020513_DIN)
100
AcDbLine
 10
192.2080623226855
 20
104.2428061846601
 30
0.0
 11
195.5080623226846
 21
104.2428061846601
 31
0.0
  0
LINE
  5
32C
330
37
100
AcDbEntity
  8
Sichtbare Kanten(TC_020513_DIN)
100
AcDbLine
 10
191.5080623226855
 20
104.9428061846601
 30
0.0
 11
195.5080623226843
 21
104.9428061846601
 31
0.0
  0
LINE
  5
32D
330
37
100
AcDbEntity
  8
Sichtbare Kanten(TC_020513_DIN)
100
AcDbLine
 10
205.2080623226845
 20
104.2428061846601
 30
0.0
 11
195.5080623226845
 21
104.2428061846601
 31
0.0
  0
LINE
  5
32E
330
37
100
AcDbEntity
  8
Sichtbare Kanten(TC_020513_DIN)
100
AcDbLine
 10
205.2080623226843
 20
104.9428061846601
 30
0.0
 11
195.5080623226843
 21
104.9428061846601
 31
0.0
  0
LINE
  5
32F
330
37
100
AcDbEntity
  8
Sichtbare Kanten(TC_020513_DIN)
100
AcDbLine
 10
195.5080623226843
 20
103.4428061846601
 30
0.0
 11
205.2080623226843
 21
103.4428061846601
 31
0.0
  0
LINE
  5
330
330
37
100
AcDbEntity
  8
Sichtbare Kanten(TC_020513_DIN)
100
AcDbLine
 10
195.5080623226845
 20
104.1428061846601
 30
0.0
 11
205.2080623226845
 21
104.1428061846601
 31
0.0
  0
LINE
  5
331
330
37
100
AcDbEntity
  8
Sichtbare Kanten(TC_020513_DIN)
100
AcDbLine
 10
195.5080623226846
 20
104.1428061846601
 30
0.0
 11
192.2080623226855
 21
104.1428061846601
 31
0.0
  0
LINE
  5
332
330
37
100
AcDbEntity
  8
Sichtbare Kanten(TC_020513_DIN)
100
AcDbLine
 10
192.2080623226855
 20
104.1428061846601
 30
0.0
 11
191.5080623226855
 21
103.4428061846601
 31
0.0
  0
LINE
  5
333
330
37
100
AcDbEntity
  8
Sichtbare Kanten(TC_020513_DIN)
100
AcDbLine
 10
195.5080623226843
 20
103.4428061846601
 30
0.0
 11
191.5080623226855
 21
103.4428061846601
 31
0.0
  0
LINE
  5
334
330
37
100
AcDbEntity
  8
Sichtbare Kanten(TC_020513_DIN)
100
AcDbLine
 10
192.2080623226855
 20
102.6428061846601
 30
0.0
 11
191.5080623226855
 21
103.3428061846601
 31
0.0
  0
LINE
  5
335
330
37
100
AcDbEntity
  8
Sichtbare Kanten(TC_020513_DIN)
100
AcDbLine
 10
192.2080623226855
 20
102.6428061846601
 30
0.0
 11
195.5080623226846
 21
102.6428061846601
 31
0.0
  0
LINE
  5
336
330
37
100
AcDbEntity
  8
Sichtbare Kanten(TC_020513_DIN)
100
AcDbLine
 10
191.5080623226855
 20
103.3428061846601
 30
0.0
 11
195.5080623226843
 21
103.3428061846601
 31
0.0
  0
LINE
  5
337
330
37
100
AcDbEntity
  8
Sichtbare Kanten(TC_020513_DIN)
100
AcDbLine
 10
205.2080623226845
 20
102.6428061846601
 30
0.0
 11
195.5080623226845
 21
102.6428061846601
 31
0.0
  0
LINE
  5
338
330
37
100
AcDbEntity
  8
Sichtbare Kanten(TC_020513_DIN)
100
AcDbLine
 10
205.2080623226843
 20
103.3428061846601
 30
0.0
 11
195.5080623226843
 21
103.3428061846601
 31
0.0
  0
LINE
  5
339
330
37
100
AcDbEntity
  8
Sichtbare Kanten(TC_020513_DIN)
100
AcDbLine
 10
195.5080623226843
 20
101.8428061846601
 30
0.0
 11
205.2080623226843
 21
101.8428061846601
 31
0.0
  0
LINE
  5
33A
330
37
100
AcDbEntity
  8
Sichtbare Kanten(TC_020513_DIN)
100
AcDbLine
 10
195.5080623226845
 20
102.5428061846601
 30
0.0
 11
205.2080623226845
 21
102.5428061846601
 31
0.0
  0
LINE
  5
33B
330
37
100
AcDbEntity
  8
Sichtbare Kanten(TC_020513_DIN)
100
AcDbLine
 10
195.5080623226846
 20
102.5428061846601
 30
0.0
 11
192.2080623226855
 21
102.5428061846601
 31
0.0
  0
LINE
  5
33C
330
37
100
AcDbEntity
  8
Sichtbare Kanten(TC_020513_DIN)
100
AcDbLine
 10
192.2080623226855
 20
102.5428061846601
 30
0.0
 11
191.5080623226855
 21
101.8428061846601
 31
0.0
  0
LINE
  5
33D
330
37
100
AcDbEntity
  8
Sichtbare Kanten(TC_020513_DIN)
100
AcDbLine
 10
195.5080623226843
 20
101.8428061846601
 30
0.0
 11
191.5080623226855
 21
101.8428061846601
 31
0.0
  0
LINE
  5
33E
330
37
100
AcDbEntity
  8
Sichtbare Kanten(TC_020513_DIN)
100
AcDbLine
 10
191.5080623226855
 20
101.7428061846601
 30
0.0
 11
192.2080623226855
 21
101.0428061846601
 31
0.0
  0
LINE
  5
33F
330
37
100
AcDbEntity
  8
Sichtbare Kanten(TC_020513_DIN)
100
AcDbLine
 10
192.2080623226855
 20
101.0428061846601
 30
0.0
 11
195.5080623226846
 21
101.0428061846601
 31
0.0
  0
LINE
  5
340
330
37
100
AcDbEntity
  8
Sichtbare Kanten(TC_020513_DIN)
100
AcDbLine
 10
191.5080623226855
 20
101.7428061846601
 30
0.0
 11
195.5080623226843
 21
101.7428061846601
 31
0.0
  0
LINE
  5
341
330
37
100
AcDbEntity
  8
Sichtbare Kanten(TC_020513_DIN)
100
AcDbLine
 10
205.2080623226845
 20
101.0428061846601
 30
0.0
 11
195.5080623226845
 21
101.0428061846601
 31
0.0
  0
LINE
  5
342
330
37
100
AcDbEntity
  8
Sichtbare Kanten(TC_020513_DIN)
100
AcDbLine
 10
205.2080623226843
 20
101.7428061846601
 30
0.0
 11
195.5080623226843
 21
101.7428061846601
 31
0.0
  0
LINE
  5
343
330
37
100
AcDbEntity
  8
Sichtbare Kanten(TC_020513_DIN)
100
AcDbLine
 10
195.5080623226843
 20
100.2428061846601
 30
0.0
 11
205.2080623226843
 21
100.2428061846601
 31
0.0
  0
LINE
  5
344
330
37
100
AcDbEntity
  8
Sichtbare Kanten(TC_020513_DIN)
100
AcDbLine
 10
195.5080623226845
 20
100.9428061846601
 30
0.0
 11
205.2080623226845
 21
100.9428061846601
 31
0.0
  0
LINE
  5
345
330
37
100
AcDbEntity
  8
Sichtbare Kanten(TC_020513_DIN)
100
AcDbLine
 10
195.5080623226846
 20
100.9428061846601
 30
0.0
 11
192.2080623226855
 21
100.9428061846601
 31
0.0
  0
LINE
  5
346
330
37
100
AcDbEntity
  8
Sichtbare Kanten(TC_020513_DIN)
100
AcDbLine
 10
192.2080623226855
 20
100.9428061846601
 30
0.0
 11
191.5080623226855
 21
100.2428061846601
 31
0.0
  0
LINE
  5
347
330
37
100
AcDbEntity
  8
Sichtbare Kanten(TC_020513_DIN)
100
AcDbLine
 10
195.5080623226843
 20
100.2428061846601
 30
0.0
 11
191.5080623226855
 21
100.2428061846601
 31
0.0
  0
LINE
  5
348
330
37
100
AcDbEntity
  8
Sichtbare Kanten(TC_020513_DIN)
100
AcDbLine
 10
192.2080623226855
 20
104.1428061846601
 30
0.0
 11
192.2080623226855
 21
104.2428061846601
 31
0.0
  0
LINE
  5
349
330
37
100
AcDbEntity
  8
Sichtbare Kanten(TC_020513_DIN)
100
AcDbLine
 10
205.2080623226843
 20
103.4428061846601
 30
0.0
 11
205.2080623226843
 21
104.9428061846601
 31
0.0
  0
LINE
  5
34A
330
37
100
AcDbEntity
  8
Sichtbare Kanten(TC_020513_DIN)
100
AcDbLine
 10
192.2080623226855
 20
102.5428061846601
 30
0.0
 11
192.2080623226855
 21
102.6428061846601
 31
0.0
  0
LINE
  5
34B
330
37
100
AcDbEntity
  8
Sichtbare Kanten(TC_020513_DIN)
100
AcDbLine
 10
205.2080623226843
 20
101.8428061846601
 30
0.0
 11
205.2080623226843
 21
103.3428061846601
 31
0.0
  0
LINE
  5
34C
330
37
100
AcDbEntity
  8
Sichtbare Kanten(TC_020513_DIN)
100
AcDbLine
 10
192.2080623226855
 20
100.9428061846601
 30
0.0
 11
192.2080623226855
 21
101.0428061846601
 31
0.0
  0
LINE
  5
34D
330
37
100
AcDbEntity
  8
Sichtbare Kanten(TC_020513_DIN)
100
AcDbLine
 10
205.2080623226843
 20
100.2428061846601
 30
0.0
 11
205.2080623226843
 21
101.7428061846601
 31
0.0
  0
LINE
  5
34E
330
37
100
AcDbEntity
  8
Sichtbare Kanten(TC_020513_DIN)
100
AcDbLine
 10
191.5080623226855
 20
100.1428061846601
 30
0.0
 11
195.5080623226843
 21
100.1428061846601
 31
0.0
  0
LINE
  5
34F
330
37
100
AcDbEntity
  8
Sichtbare Kanten(TC_020513_DIN)
100
AcDbLine
 10
191.5080623226855
 20
100.1428061846601
 30
0.0
 11
192.2080623226855
 21
99.44280618466009
 31
0.0
  0
LINE
  5
350
330
37
100
AcDbEntity
  8
Sichtbare Kanten(TC_020513_DIN)
100
AcDbLine
 10
192.2080623226855
 20
99.44280618466009
 30
0.0
 11
195.5080623226846
 21
99.44280618466009
 31
0.0
  0
LINE
  5
351
330
37
100
AcDbEntity
  8
Sichtbare Kanten(TC_020513_DIN)
100
AcDbLine
 10
205.2080623226845
 20
99.44280618466009
 30
0.0
 11
195.5080623226845
 21
99.44280618466009
 31
0.0
  0
LINE
  5
352
330
37
100
AcDbEntity
  8
Sichtbare Kanten(TC_020513_DIN)
100
AcDbLine
 10
205.2080623226843
 20
100.1428061846601
 30
0.0
 11
195.5080623226843
 21
100.1428061846601
 31
0.0
  0
LINE
  5
353
330
37
100
AcDbEntity
  8
Sichtbare Kanten(TC_020513_DIN)
100
AcDbLine
 10
195.5080623226843
 20
98.64280618466009
 30
0.0
 11
205.2080623226843
 21
98.64280618466009
 31
0.0
  0
LINE
  5
354
330
37
100
AcDbEntity
  8
Sichtbare Kanten(TC_020513_DIN)
100
AcDbLine
 10
195.5080623226845
 20
99.34280618466008
 30
0.0
 11
205.2080623226845
 21
99.34280618466008
 31
0.0
  0
LINE
  5
355
330
37
100
AcDbEntity
  8
Sichtbare Kanten(TC_020513_DIN)
100
AcDbLine
 10
195.5080623226846
 20
99.34280618466008
 30
0.0
 11
192.2080623226855
 21
99.34280618466008
 31
0.0
  0
LINE
  5
356
330
37
100
AcDbEntity
  8
Sichtbare Kanten(TC_020513_DIN)
100
AcDbLine
 10
192.2080623226855
 20
99.34280618466008
 30
0.0
 11
191.5080623226855
 21
98.64280618466009
 31
0.0
  0
LINE
  5
357
330
37
100
AcDbEntity
  8
Sichtbare Kanten(TC_020513_DIN)
100
AcDbLine
 10
195.5080623226843
 20
98.64280618466009
 30
0.0
 11
191.5080623226855
 21
98.64280618466009
 31
0.0
  0
LINE
  5
358
330
37
100
AcDbEntity
  8
Sichtbare Kanten(TC_020513_DIN)
100
AcDbLine
 10
192.2080623226855
 20
99.34280618466008
 30
0.0
 11
192.2080623226855
 21
99.44280618466009
 31
0.0
  0
LINE
  5
359
330
37
100
AcDbEntity
  8
Sichtbare Kanten(TC_020513_DIN)
100
AcDbLine
 10
205.2080623226843
 20
98.64280618466009
 30
0.0
 11
205.2080623226843
 21
100.1428061846601
 31
0.0
  0
LINE
  5
35A
330
37
100
AcDbEntity
  8
Sichtbare Kanten(TC_020513_DIN)
100
AcDbLine
 10
220.9080623226856
 20
104.9428061846601
 30
0.0
 11
220.2080623226855
 21
104.2428061846601
 31
0.0
  0
LINE
  5
35B
330
37
100
AcDbEntity
  8
Sichtbare Kanten(TC_020513_DIN)
100
AcDbLine
 10
220.2080623226855
 20
104.2428061846601
 30
0.0
 11
216.9080623226845
 21
104.2428061846601
 31
0.0
  0
LINE
  5
35C
330
37
100
AcDbEntity
  8
Sichtbare Kanten(TC_020513_DIN)
100
AcDbLine
 10
216.9080623226843
 20
104.9428061846601
 30
0.0
 11
220.9080623226855
 21
104.9428061846601
 31
0.0
  0
LINE
  5
35D
330
37
100
AcDbEntity
  8
Sichtbare Kanten(TC_020513_DIN)
100
AcDbLine
 10
216.9080623226844
 20
104.9428061846601
 30
0.0
 11
207.2080623226844
 21
104.9428061846601
 31
0.0
  0
LINE
  5
35E
330
37
100
AcDbEntity
  8
Sichtbare Kanten(TC_020513_DIN)
100
AcDbLine
 10
207.2080623226845
 20
104.2428061846601
 30
0.0
 11
216.9080623226846
 21
104.2428061846601
 31
0.0
  0
LINE
  5
35F
330
37
100
AcDbEntity
  8
Sichtbare Kanten(TC_020513_DIN)
100
AcDbLine
 10
207.2080623226844
 20
100.2428061846601
 30
0.0
 11
216.9080623226844
 21
100.2428061846601
 31
0.0
  0
LINE
  5
360
330
37
100
AcDbEntity
  8
Sichtbare Kanten(TC_020513_DIN)
100
AcDbLine
 10
207.2080623226844
 20
101.7428061846601
 30
0.0
 11
207.2080623226844
 21
100.2428061846601
 31
0.0
  0
LINE
  5
361
330
37
100
AcDbEntity
  8
Sichtbare Kanten(TC_020513_DIN)
100
AcDbLine
 10
216.9080623226844
 20
101.7428061846601
 30
0.0
 11
207.2080623226844
 21
101.7428061846601
 31
0.0
  0
LINE
  5
362
330
37
100
AcDbEntity
  8
Sichtbare Kanten(TC_020513_DIN)
100
AcDbLine
 10
207.2080623226844
 20
101.8428061846601
 30
0.0
 11
216.9080623226844
 21
101.8428061846601
 31
0.0
  0
LINE
  5
363
330
37
100
AcDbEntity
  8
Sichtbare Kanten(TC_020513_DIN)
100
AcDbLine
 10
207.2080623226844
 20
103.3428061846601
 30
0.0
 11
207.2080623226844
 21
101.8428061846601
 31
0.0
  0
LINE
  5
364
330
37
100
AcDbEntity
  8
Sichtbare Kanten(TC_020513_DIN)
100
AcDbLine
 10
216.9080623226844
 20
103.3428061846601
 30
0.0
 11
207.2080623226844
 21
103.3428061846601
 31
0.0
  0
LINE
  5
365
330
37
100
AcDbEntity
  8
Sichtbare Kanten(TC_020513_DIN)
100
AcDbLine
 10
207.2080623226844
 20
103.4428061846601
 30
0.0
 11
216.9080623226844
 21
103.4428061846601
 31
0.0
  0
LINE
  5
366
330
37
100
AcDbEntity
  8
Sichtbare Kanten(TC_020513_DIN)
100
AcDbLine
 10
207.2080623226844
 20
104.9428061846601
 30
0.0
 11
207.2080623226844
 21
103.4428061846601
 31
0.0
  0
LINE
  5
367
330
37
100
AcDbEntity
  8
Sichtbare Kanten(TC_020513_DIN)
100
AcDbLine
 10
220.2080623226855
 20
104.1428061846601
 30
0.0
 11
220.9080623226856
 21
103.4428061846601
 31
0.0
  0
LINE
  5
368
330
37
100
AcDbEntity
  8
Sichtbare Kanten(TC_020513_DIN)
100
AcDbLine
 10
216.9080623226845
 20
104.1428061846601
 30
0.0
 11
220.2080623226855
 21
104.1428061846601
 31
0.0
  0
LINE
  5
369
330
37
100
AcDbEntity
  8
Sichtbare Kanten(TC_020513_DIN)
100
AcDbLine
 10
220.9080623226856
 20
103.4428061846601
 30
0.0
 11
216.9080623226844
 21
103.4428061846601
 31
0.0
  0
LINE
  5
36A
330
37
100
AcDbEntity
  8
Sichtbare Kanten(TC_020513_DIN)
100
AcDbLine
 10
216.9080623226846
 20
104.1428061846601
 30
0.0
 11
207.2080623226845
 21
104.1428061846601
 31
0.0
  0
LINE
  5
36B
330
37
100
AcDbEntity
  8
Sichtbare Kanten(TC_020513_DIN)
100
AcDbLine
 10
207.2080623226845
 20
102.6428061846601
 30
0.0
 11
216.9080623226846
 21
102.6428061846601
 31
0.0
  0
LINE
  5
36C
330
37
100
AcDbEntity
  8
Sichtbare Kanten(TC_020513_DIN)
100
AcDbLine
 10
220.2080623226855
 20
102.6428061846601
 30
0.0
 11
216.9080623226845
 21
102.6428061846601
 31
0.0
  0
LINE
  5
36D
330
37
100
AcDbEntity
  8
Sichtbare Kanten(TC_020513_DIN)
100
AcDbLine
 10
220.2080623226855
 20
102.6428061846601
 30
0.0
 11
220.9080623226856
 21
103.3428061846601
 31
0.0
  0
LINE
  5
36E
330
37
100
AcDbEntity
  8
Sichtbare Kanten(TC_020513_DIN)
100
AcDbLine
 10
216.9080623226843
 20
103.3428061846601
 30
0.0
 11
220.9080623226855
 21
103.3428061846601
 31
0.0
  0
LINE
  5
36F
330
37
100
AcDbEntity
  8
Sichtbare Kanten(TC_020513_DIN)
100
AcDbLine
 10
220.2080623226855
 20
102.5428061846601
 30
0.0
 11
220.9080623226856
 21
101.8428061846601
 31
0.0
  0
LINE
  5
370
330
37
100
AcDbEntity
  8
Sichtbare Kanten(TC_020513_DIN)
100
AcDbLine
 10
216.9080623226845
 20
102.5428061846601
 30
0.0
 11
220.2080623226855
 21
102.5428061846601
 31
0.0
  0
LINE
  5
371
330
37
100
AcDbEntity
  8
Sichtbare Kanten(TC_020513_DIN)
100
AcDbLine
 10
220.9080623226856
 20
101.8428061846601
 30
0.0
 11
216.9080623226844
 21
101.8428061846601
 31
0.0
  0
LINE
  5
372
330
37
100
AcDbEntity
  8
Sichtbare Kanten(TC_020513_DIN)
100
AcDbLine
 10
216.9080623226846
 20
102.5428061846601
 30
0.0
 11
207.2080623226845
 21
102.5428061846601
 31
0.0
  0
LINE
  5
373
330
37
100
AcDbEntity
  8
Sichtbare Kanten(TC_020513_DIN)
100
AcDbLine
 10
216.9080623226843
 20
101.7428061846601
 30
0.0
 11
220.9080623226855
 21
101.7428061846601
 31
0.0
  0
LINE
  5
374
330
37
100
AcDbEntity
  8
Sichtbare Kanten(TC_020513_DIN)
100
AcDbLine
 10
220.9080623226856
 20
101.7428061846601
 30
0.0
 11
220.2080623226855
 21
101.0428061846601
 31
0.0
  0
LINE
  5
375
330
37
100
AcDbEntity
  8
Sichtbare Kanten(TC_020513_DIN)
100
AcDbLine
 10
220.2080623226855
 20
101.0428061846601
 30
0.0
 11
216.9080623226845
 21
101.0428061846601
 31
0.0
  0
LINE
  5
376
330
37
100
AcDbEntity
  8
Sichtbare Kanten(TC_020513_DIN)
100
AcDbLine
 10
207.2080623226845
 20
101.0428061846601
 30
0.0
 11
216.9080623226846
 21
101.0428061846601
 31
0.0
  0
LINE
  5
377
330
37
100
AcDbEntity
  8
Sichtbare Kanten(TC_020513_DIN)
100
AcDbLine
 10
220.2080623226855
 20
100.9428061846601
 30
0.0
 11
220.9080623226856
 21
100.2428061846601
 31
0.0
  0
LINE
  5
378
330
37
100
AcDbEntity
  8
Sichtbare Kanten(TC_020513_DIN)
100
AcDbLine
 10
216.9080623226845
 20
100.9428061846601
 30
0.0
 11
220.2080623226855
 21
100.9428061846601
 31
0.0
  0
LINE
  5
379
330
37
100
AcDbEntity
  8
Sichtbare Kanten(TC_020513_DIN)
100
AcDbLine
 10
220.9080623226856
 20
100.2428061846601
 30
0.0
 11
216.9080623226844
 21
100.2428061846601
 31
0.0
  0
LINE
  5
37A
330
37
100
AcDbEntity
  8
Sichtbare Kanten(TC_020513_DIN)
100
AcDbLine
 10
216.9080623226846
 20
100.9428061846601
 30
0.0
 11
207.2080623226845
 21
100.9428061846601
 31
0.0
  0
LINE
  5
37B
330
37
100
AcDbEntity
  8
Sichtbare Kanten(TC_020513_DIN)
100
AcDbLine
 10
220.2080623226855
 20
104.1428061846601
 30
0.0
 11
220.2080623226855
 21
104.2428061846601
 31
0.0
  0
LINE
  5
37C
330
37
100
AcDbEntity
  8
Sichtbare Kanten(TC_020513_DIN)
100
AcDbLine
 10
220.2080623226855
 20
102.5428061846601
 30
0.0
 11
220.2080623226855
 21
102.6428061846601
 31
0.0
  0
LINE
  5
37D
330
37
100
AcDbEntity
  8
Sichtbare Kanten(TC_020513_DIN)
100
AcDbLine
 10
220.2080623226855
 20
100.9428061846601
 30
0.0
 11
220.2080623226855
 21
101.0428061846601
 31
0.0
  0
LINE
  5
37E
330
37
100
AcDbEntity
  8
Sichtbare Kanten(TC_020513_DIN)
100
AcDbLine
 10
207.2080623226844
 20
98.64280618466009
 30
0.0
 11
216.9080623226844
 21
98.64280618466009
 31
0.0
  0
LINE
  5
37F
330
37
100
AcDbEntity
  8
Sichtbare Kanten(TC_020513_DIN)
100
AcDbLine
 10
216.9080623226844
 20
100.1428061846601
 30
0.0
 11
207.2080623226844
 21
100.1428061846601
 31
0.0
  0
LINE
  5
380
330
37
100
AcDbEntity
  8
Sichtbare Kanten(TC_020513_DIN)
100
AcDbLine
 10
216.9080623226843
 20
100.1428061846601
 30
0.0
 11
220.9080623226855
 21
100.1428061846601
 31
0.0
  0
LINE
  5
381
330
37
100
AcDbEntity
  8
Sichtbare Kanten(TC_020513_DIN)
100
AcDbLine
 10
220.9080623226856
 20
100.1428061846601
 30
0.0
 11
220.2080623226855
 21
99.44280618466009
 31
0.0
  0
LINE
  5
382
330
37
100
AcDbEntity
  8
Sichtbare Kanten(TC_020513_DIN)
100
AcDbLine
 10
220.2080623226855
 20
99.44280618466009
 30
0.0
 11
216.9080623226845
 21
99.44280618466009
 31
0.0
  0
LINE
  5
383
330
37
100
AcDbEntity
  8
Sichtbare Kanten(TC_020513_DIN)
100
AcDbLine
 10
207.2080623226845
 20
99.44280618466009
 30
0.0
 11
216.9080623226846
 21
99.44280618466009
 31
0.0
  0
LINE
  5
384
330
37
100
AcDbEntity
  8
Sichtbare Kanten(TC_020513_DIN)
100
AcDbLine
 10
220.2080623226855
 20
99.34280618466008
 30
0.0
 11
220.9080623226856
 21
98.64280618466009
 31
0.0
  0
LINE
  5
385
330
37
100
AcDbEntity
  8
Sichtbare Kanten(TC_020513_DIN)
100
AcDbLine
 10
216.9080623226845
 20
99.34280618466008
 30
0.0
 11
220.2080623226855
 21
99.34280618466008
 31
0.0
  0
LINE
  5
386
330
37
100
AcDbEntity
  8
Sichtbare Kanten(TC_020513_DIN)
100
AcDbLine
 10
220.9080623226856
 20
98.64280618466009
 30
0.0
 11
216.9080623226844
 21
98.64280618466009
 31
0.0
  0
LINE
  5
387
330
37
100
AcDbEntity
  8
Sichtbare Kanten(TC_020513_DIN)
100
AcDbLine
 10
216.9080623226846
 20
99.34280618466008
 30
0.0
 11
207.2080623226845
 21
99.34280618466008
 31
0.0
  0
LINE
  5
388
330
37
100
AcDbEntity
  8
Sichtbare Kanten(TC_020513_DIN)
100
AcDbLine
 10
207.2080623226844
 20
100.1428061846601
 30
0.0
 11
207.2080623226844
 21
98.64280618466009
 31
0.0
  0
LINE
  5
389
330
37
100
AcDbEntity
  8
Sichtbare Kanten(TC_020513_DIN)
100
AcDbLine
 10
220.2080623226855
 20
99.34280618466008
 30
0.0
 11
220.2080623226855
 21
99.44280618466009
 31
0.0
  0
LINE
  5
38A
330
37
100
AcDbEntity
  8
Sichtbare Kanten(TC_020513_DIN)
100
AcDbLine
 10
216.9130623226843
 20
85.89280618466009
 30
0.0
 11
195.5030623226843
 21
85.89280618466009
 31
0.0
  0
LINE
  5
38B
330
37
100
AcDbEntity
  8
Sichtbare Kanten(TC_020513_DIN)
100
AcDbLine
 10
216.9130623226843
 20
85.89280618466009
 30
0.0
 11
220.9130623226855
 21
85.89280618466009
 31
0.0
  0
LINE
  5
38C
330
37
100
AcDbEntity
  8
Sichtbare Kanten(TC_020513_DIN)
100
AcDbLine
 10
191.5030623226855
 20
85.89280618466009
 30
0.0
 11
195.5030623226843
 21
85.89280618466009
 31
0.0
  0
LINE
  5
38D
330
37
100
AcDbEntity
  8
Sichtbare Kanten(TC_020513_DIN)
100
AcDbLine
 10
216.9130623226843
 20
82.89280618466008
 30
0.0
 11
195.5030623226843
 21
82.89280618466008
 31
0.0
  0
LINE
  5
38E
330
37
100
AcDbEntity
  8
Sichtbare Kanten(TC_020513_DIN)
100
AcDbLine
 10
191.5030623226855
 20
82.89280618466008
 30
0.0
 11
191.5030623226855
 21
85.89280618466009
 31
0.0
  0
LINE
  5
38F
330
37
100
AcDbEntity
  8
Sichtbare Kanten(TC_020513_DIN)
100
AcDbLine
 10
191.5030623226855
 20
82.89280618466008
 30
0.0
 11
195.5030623226843
 21
82.89280618466008
 31
0.0
  0
LINE
  5
390
330
37
100
AcDbEntity
  8
Sichtbare Kanten(TC_020513_DIN)
100
AcDbLine
 10
220.9130623226855
 20
82.89280618466008
 30
0.0
 11
220.9130623226855
 21
85.89280618466009
 31
0.0
  0
LINE
  5
391
330
37
100
AcDbEntity
  8
Sichtbare Kanten(TC_020513_DIN)
100
AcDbLine
 10
216.9130623226843
 20
82.89280618466008
 30
0.0
 11
220.9130623226855
 21
82.89280618466008
 31
0.0
  0
DIMENSION
  5
392
330
37
100
AcDbEntity
  8
Bemaßungen(TC_020513_DIN)
  6
Continuous
 62
     7
370
    25
100
AcDbDimension
  2
*D11
 10
125.6127751470782
 20
56.39280618466006
 30
0.0
 11
89.61277514707818
 21
56.39280618466006
 31
0.0
 70
   160
  1
<>
 42
72.00000000000002
  3
STANDARD-TC_020513_DIN
100
AcDbAlignedDimension
 13
53.61277514707817
 23
90.39280618466007
 33
0.0
 14
125.6127751470782
 24
90.39280618466007
 34
0.0
 50
180.0
100
AcDbRotatedDimension
1001
ACAD
1000
DSTYLE
1002
{
1070
   271
1070
     2
1070
   272
1070
     2
1070
    48
1040
0.0
1070
    47
1040
0.0
1002
}
  0
DIMENSION
  5
453
330
37
100
AcDbEntity
  8
Bemaßungen(TC_020513_DIN)
  6
Continuous
 62
     7
370
    25
100
AcDbDimension
  2
*D12
 10
121.1177751470782
 20
65.53504822197881
 30
0.0
 11
89.61277514707818
 21
65.53504822197881
 31
0.0
 70
   160
  1
<>
 42
63.01000000000001
  3
STANDARD-TC_020513_DIN
100
AcDbAlignedDimension
 13
58.10777514707817
 23
84.39280618466009
 33
0.0
 14
121.1177751470782
 24
84.39280618466009
 34
0.0
 50
180.0
100
AcDbRotatedDimension
1001
ACAD
1000
DSTYLE
1002
{
1070
   271
1070
     1
1070
   272
1070
     2
1070
    48
1040
0.0
1070
    47
1040
0.0
1002
}
  0
DIMENSION
  5
518
330
37
100
AcDbEntity
  8
Bemaßungen(TC_020513_DIN)
  6
Continuous
 62
     7
370
    25
100
AcDbDimension
  2
*D13
 10
220.9130623226855
 20
65.53504822197881
 30
0.0
 11
206.2080623226856
 21
65.53504822197881
 31
0.0
 70
   160
  1
<>
 42
29.41
  3
STANDARD-TC_020513_DIN
100
AcDbAlignedDimension
 13
191.5030623226855
 23
84.39280618466009
 33
0.0
 14
220.9130623226855
 24
82.89280618466008
 34
0.0
 50
180.0
100
AcDbRotatedDimension
1001
ACAD
1000
DSTYLE
1002
{
1070
   271
1070
     1
1070
   272
1070
     2
1070
    48
1040
0.0
1070
    47
1040
0.0
1002
}
  0
DIMENSION
  5
5DD
330
37
100
AcDbEntity
  8
Bemaßungen(TC_020513_DIN)
  6
Continuous
 62
     7
370
    25
100
AcDbDimension
  2
*D14
 10
224.2080623226849
 20
56.39280618466006
 30
0.0
 11
206.2080623226849
 21
56.39280618466006
 31
0.0
 70
   160
  1
<>
 42
36.0
  3
STANDARD-TC_020513_DIN
100
AcDbAlignedDimension
 13
188.2080623226849
 23
115.5178061846601
 33
0.0
 14
224.2080623226849
 24
115.5178061846601
 34
0.0
 50
180.0
100
AcDbRotatedDimension
1001
ACAD
1000
DSTYLE
1002
{
1070
   271
1070
     2
1070
   272
1070
     2
1070
    48
1040
0.0
1070
    47
1040
0.0
1002
}
  0
DIMENSION
  5
6A2
330
37
100
AcDbEntity
  8
Bemaßungen(TC_020513_DIN)
  6
Continuous
 62
     7
370
    25
100
AcDbDimension
  2
*D15
 10
244.9130623226844
 20
82.89280618466007
 30
0.0
 11
244.9130623226844
 21
115.1428061846601
 31
0.0
 70
   160
  1
<>
 42
64.50000000000001
  3
STANDARD-TC_020513_DIN
100
AcDbAlignedDimension
 13
223.2080623226873
 23
147.3928061846601
 33
0.0
 14
216.9130623226843
 24
82.89280618466008
 34
0.0
 50
90.0
100
AcDbRotatedDimension
1001
ACAD
1000
DSTYLE
1002
{
1070
   271
1070
     2
1070
   272
1070
     2
1070
    48
1040
0.0
1070
    47
1040
0.0
1002
}
  0
DIMENSION
  5
767
330
37
100
AcDbEntity
  8
Bemaßungen(TC_020513_DIN)
  6
Continuous
 62
     7
370
    25
100
AcDbDimension
  2
*D16
 10
245.2080623226873
 20
147.3928061846601
 30
0.0
 11
245.2080623226873
 21
154.6428061846601
 31
0.0
 70
   160
  1
<>
 42
14.50000000000003
  3
STANDARD-TC_020513_DIN
100
AcDbAlignedDimension
 13
218.2080623226937
 23
161.8928061846601
 33
0.0
 14
223.2080623226873
 24
147.3928061846601
 34
0.0
 50
270.0
100
AcDbRotatedDimension
1001
ACAD
1000
DSTYLE
1002
{
1070
   271
1070
     2
1070
   272
1070
     2
1070
    48
1040
0.0
1070
    47
1040
0.0
1002
}
  0
LINE
  5
82C
330
37
100
AcDbEntity
  8
Mittellinie(TC_020513_DIN)
  6
CHAIN
 48
23.99096870422363
100
AcDbLine
 10
89.61277514707818
 20
78.99625400465217
 30
0.0
 11
89.61277514707818
 21
164.3928061846601
 31
0.0
  0
LINE
  5
82D
330
37
100
AcDbEntity
  8
Mittellinie(TC_020513_DIN)
  6
CHAIN
 48
9.556283950805664
100
AcDbLine
 10
59.71277514707818
 20
90.3928061846601
 30
0.0
 11
51.11277514707817
 21
90.39280618466007
 31
0.0
  0
LINE
  5
82E
330
37
100
AcDbEntity
  8
Mittellinie(TC_020513_DIN)
  6
CHAIN
 48
9.556283950805664
100
AcDbLine
 10
128.1127751470782
 20
90.39280618466007
 30
0.0
 11
119.5127751470782
 21
90.3928061846601
 31
0.0
  0
LINE
  5
82F
330
37
100
AcDbEntity
  8
Mittellinie(TC_020513_DIN)
  6
CHAIN
 48
23.99096870422363
100
AcDbLine
 10
206.2080623226937
 20
79.81982365338449
 30
0.0
 11
206.2080623226937
 21
164.3928061846601
 31
0.0
  0
LINE
  5
830
330
37
100
AcDbEntity
  8
Mittelpunktmarkierung(TC_020513_DIN)
  6
CHAIN
 48
9.556283950805664
100
AcDbLine
 10
210.508062322683
 20
90.39280618466007
 30
0.0
 11
201.908062322683
 21
90.39280618466007
 31
0.0
  0
LINE
  5
831
330
37
100
AcDbEntity
  8
Mittelpunktmarkierung(TC_020513_DIN)
  6
CHAIN
 48
9.556283950805664
100
AcDbLine
 10
206.208062322683
 20
94.69280618466006
 30
0.0
 11
206.208062322683
 21
86.09280618466007
 31
0.0
  0
DIMENSION
  5
832
330
37
100
AcDbEntity
  8
Bemaßungen(TC_020513_DIN)
  6
Continuous
 62
     7
370
    25
100
AcDbDimension
  2
*D17
 10
100.1927751470782
 20
170.9605838507974
 30
0.0
 11
89.61277514707818
 21
170.9605838507974
 31
0.0
 70
   160
  1
 PG16
 42
21.16
  3
STANDARD-TC_020513_DIN
100
AcDbAlignedDimension
 13
79.03277514707818
 23
156.3350206231713
 33
0.0
 14
100.1927751470782
 24
161.8928061846601
 34
0.0
100
AcDbRotatedDimension
1001
ACAD
1000
DSTYLE
1002
{
1070
   271
1070
     2
1070
   272
1070
     2
1070
    48
1040
0.0
1070
    47
1040
0.0
1002
}
  0
ENDSEC
  0
SECTION
  2
OBJECTS
  0
DICTIONARY
  5
C
330
0
100
AcDbDictionary
281
     1
  3
ACAD_COLOR
350
30
  3
ACAD_GROUP
350
D
  3
ACAD_LAYOUT
350
2F
  3
ACAD_MATERIAL
350
10
  3
ACAD_MLINESTYLE
350
2C
  3
ACAD_PLOTSETTINGS
350
2E
  3
ACAD_PLOTSTYLENAME
350
E
  3
ACAD_TABLESTYLE
350
31
  3
ACAD_VISUALSTYLE
350
14
  3
AcDbVariableDictionary
350
8F7
  3
DWGPROPS
350
8FD
  0
DICTIONARY
  5
90C
330
FA
100
AcDbDictionary
280
     1
281
     1
  3
ACAD_MTEXT_RT
360
90D
  0
DICTIONARY
  5
90E
330
10A
100
AcDbDictionary
280
     1
281
     1
  3
ACAD_MTEXT_RT
360
90F
  0
DICTIONARY
  5
910
330
12B
100
AcDbDictionary
280
     1
281
     1
  3
ACAD_MTEXT_RT
360
911
  0
DICTIONARY
  5
30
102
{ACAD_REACTORS
330
C
102
}
330
C
100
AcDbDictionary
281
     1
  0
DICTIONARY
  5
D
102
{ACAD_REACTORS
330
C
102
}
330
C
100
AcDbDictionary
281
     1
  0
DICTIONARY
  5
2F
102
{ACAD_REACTORS
330
C
102
}
330
C
100
AcDbDictionary
281
     1
  3
Layout1
350
36
  3
Layout2
350
3E
  3
Model
350
3A
  0
DICTIONARY
  5
10
102
{ACAD_REACTORS
330
C
102
}
330
C
100
AcDbDictionary
281
     1
  3
ByBlock
350
12
  3
ByLayer
350
11
  3
Global
350
13
  0
DICTIONARY
  5
2C
102
{ACAD_REACTORS
330
C
102
}
330
C
100
AcDbDictionary
281
     1
  3
Standard
350
2D
  0
DICTIONARY
  5
2E
102
{ACAD_REACTORS
330
C
102
}
330
C
100
AcDbDictionary
281
     1
  0
ACDBDICTIONARYWDFLT
  5
E
102
{ACAD_REACTORS
330
C
102
}
330
C
100
AcDbDictionary
281
     1
  3
Normal
350
F
100
AcDbDictionaryWithDefault
340
F
  0
DICTIONARY
  5
31
102
{ACAD_REACTORS
330
C
102
}
330
C
100
AcDbDictionary
281
     1
  3
Standard
350
32
  0
DICTIONARY
  5
14
102
{ACAD_REACTORS
330
C
102
}
330
C
100
AcDbDictionary
281
     1
  3
2dWireframe
350
1A
  3
3D Hidden
350
1C
  3
3dWireframe
350
1B
  3
Basic
350
19
  3
Brighten
350
20
  3
ColorChange
350
24
  3
Conceptual
350
1D
  3
Dim
350
1F
  3
Facepattern
350
23
  3
Flat
350
15
  3
FlatWithEdges
350
16
  3
Gouraud
350
17
  3
GouraudWithEdges
350
18
  3
Linepattern
350
22
  3
Realistic
350
1E
  3
Thicken
350
21
  0
DICTIONARY
  5
8F7
102
{ACAD_REACTORS
330
C
102
}
330
C
100
AcDbDictionary
281
     1
  3
CTABLESTYLE
350
8F8
  3
DIMASSOC
350
8FC
  3
HIDETEXT
350
8FB
  3
INDEXCTL
350
8FA
  3
SORTENTS
350
8F9
  0
XRECORD
  5
8FD
102
{ACAD_REACTORS
330
C
102
}
330
C
100
AcDbXrecord
280
     1
  1
DWGPROPS COOKIE
  2

  3

  4
bräunlich
  6

  7

  8

  9

300
Manager=
301
Firma=
302
Kategorie=
303
Bauteilnummer=CZAV 15 L16
304
Bezeichnung=
305
Projekt=
306
Konstrukteur=bräunlich
307
Ingenieur=
308
Bevollmächtigter=
309
Kostenstelle=
 40
0.0000978356481481
 41
2454085.378247246
 42
2454085.378247246
  1

 90
       22
300
Zulieferer=
300
Benutzerstatus=
300
Konstruktionsstatus=InBearbeitung
300
Kontrolliert von=
300
Konstruktion genehmigt von=
300
Fertigung genehmigt von=
300
FirstViewScale:1=1:1
300
SaveDate=08/30/2006
300
SaveTime=14:09
300
PaperSize=A4
300
AllViewScales=1:1
300
FirstViewScale=1:1
  0
XRECORD
  5
90D
102
{ACAD_REACTORS
330
90C
102
}
330
90C
100
AcDbXrecord
280
     1
 40
45260.0
  1
Für spanlose Bearbeitung
  0
XRECORD
  5
90F
102
{ACAD_REACTORS
330
90E
102
}
330
90E
100
AcDbXrecord
280
     1
 40
49954.0
  1
Alle nicht bemaßten Radien R
  0
XRECORD
  5
911
102
{ACAD_REACTORS
330
910
102
}
330
910
100
AcDbXrecord
280
     1
 40
53914.0
  1
Werkstückkanten\Pnach ISO 13715
  0
LAYOUT
  5
36
102
{ACAD_XDICTIONARY
360
906
102
}
102
{ACAD_REACTORS
330
2F
102
}
330
2F
100
AcDbPlotSettings
  1

  2

  4

  6

 40
0.0
 41
0.0
 42
0.0
 43
0.0
 44
0.0
 45
0.0
 46
0.0
 47
0.0
 48
0.0
 49
0.0
140
0.0
141
0.0
142
1.0
143
1.0
 70
   688
 72
     0
 73
     0
 74
     5
  7

 75
    16
147
1.0
148
0.0
149
0.0
100
AcDbLayout
  1
Layout1
 70
     1
 71
     1
 10
0.0
 20
0.0
 11
12.0
 21
9.0
 12
0.0
 22
0.0
 32
0.0
 14
0.0
 24
0.0
 34
0.0
 15
0.0
 25
0.0
 35
0.0
146
0.0
 13
0.0
 23
0.0
 33
0.0
 16
1.0
 26
0.0
 36
0.0
 17
0.0
 27
1.0
 37
0.0
 76
     0
330
33
  0
LAYOUT
  5
3E
102
{ACAD_XDICTIONARY
360
90A
102
}
102
{ACAD_REACTORS
330
2F
102
}
330
2F
100
AcDbPlotSettings
  1

  2

  4

  6

 40
0.0
 41
0.0
 42
0.0
 43
0.0
 44
0.0
 45
0.0
 46
0.0
 47
0.0
 48
0.0
 49
0.0
140
0.0
141
0.0
142
1.0
143
1.0
 70
   688
 72
     0
 73
     0
 74
     5
  7

 75
    16
147
1.0
148
0.0
149
0.0
100
AcDbLayout
  1
Layout2
 70
     1
 71
     2
 10
0.0
 20
0.0
 11
12.0
 21
9.0
 12
0.0
 22
0.0
 32
0.0
 14
0.0
 24
0.0
 34
0.0
 15
0.0
 25
0.0
 35
0.0
146
0.0
 13
0.0
 23
0.0
 33
0.0
 16
1.0
 26
0.0
 36
0.0
 17
0.0
 27
1.0
 37
0.0
 76
     0
330
3B
  0
LAYOUT
  5
3A
102
{ACAD_XDICTIONARY
360
908
102
}
102
{ACAD_REACTORS
330
2F
102
}
330
2F
100
AcDbPlotSettings
  1

  2

  4

  6

 40
0.0
 41
0.0
 42
0.0
 43
0.0
 44
0.0
 45
0.0
 46
0.0
 47
0.0
 48
0.0
 49
0.0
140
0.0
141
0.0
142
1.0
143
1.0
 70
  1712
 72
     0
 73
     0
 74
     0
  7

 75
     0
147
1.0
148
0.0
149
0.0
100
AcDbLayout
  1
Model
 70
     1
 71
     0
 10
0.0
 20
0.0
 11
12.0
 21
9.0
 12
0.0
 22
0.0
 32
0.0
 14
0.0
 24
0.0
 34
0.0
 15
0.0
 25
0.0
 35
0.0
146
0.0
 13
0.0
 23
0.0
 33
0.0
 16
1.0
 26
0.0
 36
0.0
 17
0.0
 27
1.0
 37
0.0
 76
     0
330
37
  0
MATERIAL
  5
12
102
{ACAD_XDICTIONARY
360
900
102
}
102
{ACAD_REACTORS
330
10
102
}
330
10
100
AcDbMaterial
  1
ByBlock
  0
MATERIAL
  5
11
102
{ACAD_XDICTIONARY
360
8FE
102
}
102
{ACAD_REACTORS
330
10
102
}
330
10
100
AcDbMaterial
  1
ByLayer
  0
MATERIAL
  5
13
102
{ACAD_XDICTIONARY
360
902
102
}
102
{ACAD_REACTORS
330
10
102
}
330
10
100
AcDbMaterial
  1
Global
  0
MLINESTYLE
  5
2D
102
{ACAD_REACTORS
330
2C
102
}
330
2C
100
AcDbMlineStyle
  2
STANDARD
 70
     0
  3

 62
   256
 51
90.0
 52
90.0
 71
     2
 49
0.5
 62
   256
  6
BYLAYER
 49
-0.5
 62
   256
  6
BYLAYER
  0
ACDBPLACEHOLDER
  5
F
102
{ACAD_REACTORS
330
E
102
}
330
E
  0
TABLESTYLE
  5
32
102
{ACAD_XDICTIONARY
360
904
102
}
102
{ACAD_REACTORS
330
31
102
}
330
31
100
AcDbTableStyle
  3
Standard
 70
     0
 71
     0
 40
0.06
 41
0.06
280
     0
281
     0
  7
Standard
140
0.18
170
     2
 62
     0
 63
     7
283
     0
274
    -2
284
     1
 64
     0
275
    -2
285
     1
 65
     0
276
    -2
286
     1
 66
     0
277
    -2
287
     1
 67
     0
278
    -2
288
     1
 68
     0
279
    -2
289
     1
 69
     0
  7
Standard
140
0.25
170
     5
 62
     0
 63
     7
283
     0
274
    -2
284
     1
 64
     0
275
    -2
285
     1
 65
     0
276
    -2
286
     1
 66
     0
277
    -2
287
     1
 67
     0
278
    -2
288
     1
 68
     0
279
    -2
289
     1
 69
     0
  7
Standard
140
0.18
170
     5
 62
     0
 63
     7
283
     0
274
    -2
284
     1
 64
     0
275
    -2
285
     1
 65
     0
276
    -2
286
     1
 66
     0
277
    -2
287
     1
 67
     0
278
    -2
288
     1
 68
     0
279
    -2
289
     1
 69
     0
  0
VISUALSTYLE
  5
1A
102
{ACAD_REACTORS
330
14
102
}
330
14
100
AcDbVisualStyle
  2
2dWireframe
 70
     4
 71
     0
 72
     2
 73
     0
 90
        0
 40
-0.6
 41
-30.0
 62
     5
 63
     7
 74
     1
 91
        4
 64
     7
 65
   257
 75
     1
175
     1
 42
1.0
 92
        0
 66
   257
 43
1.0
 76
     1
 77
     6
 78
     2
 67
     7
 79
     5
170
     0
171
     0
290
     0
174
     0
 93
        1
 44
0.0
173
     0
291
     0
 45
0.0
1001
ACAD
1000
AcDbSavedByObjectVersion
1070
     0
  0
VISUALSTYLE
  5
1C
102
{ACAD_REACTORS
330
14
102
}
330
14
100
AcDbVisualStyle
  2
3D Hidden
 70
     6
 71
     1
 72
     2
 73
     2
 90
        0
 40
-0.6
 41
-30.0
 62
     5
 63
     7
 74
     2
 91
        2
 64
     7
 65
   257
 75
     2
175
     1
 42
40.0
 92
        0
 66
   257
 43
1.0
 76
     1
 77
     6
 78
     2
 67
     7
 79
     3
170
     0
171
     0
290
     0
174
     0
 93
        1
 44
0.0
173
     0
291
     0
 45
0.0
1001
ACAD
1000
AcDbSavedByObjectVersion
1070
     0
  0
VISUALSTYLE
  5
1B
102
{ACAD_REACTORS
330
14
102
}
330
14
100
AcDbVisualStyle
  2
3dWireframe
 70
     5
 71
     0
 72
     2
 73
     0
 90
        0
 40
-0.6
 41
-30.0
 62
     5
 63
     7
 74
     1
 91
        4
 64
     7
 65
   257
 75
     1
175
     1
 42
1.0
 92
        0
 66
   257
 43
1.0
 76
     1
 77
     6
 78
     2
 67
     7
 79
     5
170
     0
171
     0
290
     0
174
     0
 93
        1
 44
0.0
173
     0
291
     0
 45
0.0
1001
ACAD
1000
AcDbSavedByObjectVersion
1070
     0
  0
VISUALSTYLE
  5
19
102
{ACAD_REACTORS
330
14
102
}
330
14
100
AcDbVisualStyle
  2
Basic
 70
     7
 71
     1
 72
     0
 73
     1
 90
        0
 40
-0.6
 41
-30.0
 62
     5
 63
     7
 74
     0
 91
        4
 64
     7
 65
   257
 75
     1
175
     1
 42
1.0
 92
        8
 66
     7
 43
1.0
 76
     1
 77
     6
 78
     2
 67
     7
 79
     5
170
     0
171
     0
290
     0
174
     0
 93
        1
 44
0.0
173
     0
291
     1
 45
0.0
1001
ACAD
1000
AcDbSavedByObjectVersion
1070
     0
  0
VISUALSTYLE
  5
20
102
{ACAD_REACTORS
330
14
102
}
330
14
100
AcDbVisualStyle
  2
Brighten
 70
    12
 71
     2
 72
     2
 73
     0
 90
        0
 40
-0.6
 41
-30.0
 62
     5
 63
     7
 74
     1
 91
        4
 64
     7
 65
   257
 75
     1
175
     1
 42
1.0
 92
        8
 66
     7
 43
1.0
 76
     1
 77
     6
 78
     2
 67
     7
 79
     5
170
     0
171
     0
290
     0
174
     0
 93
        1
 44
50.0
173
     0
291
     1
 45
0.0
1001
ACAD
1000
AcDbSavedByObjectVersion
1070
     0
  0
VISUALSTYLE
  5
24
102
{ACAD_REACTORS
330
14
102
}
330
14
100
AcDbVisualStyle
  2
ColorChange
 70
    16
 71
     2
 72
     2
 73
     3
 90
        0
 40
-0.6
 41
-30.0
 62
     5
 63
     8
 74
     1
 91
        4
 64
     7
 65
   257
 75
     1
175
     1
 42
1.0
 92
        8
 66
     8
 43
1.0
 76
     1
 77
     6
 78
     2
 67
     7
 79
     5
170
     0
171
     0
290
     0
174
     0
 93
        1
 44
0.0
173
     0
291
     1
 45
0.0
1001
ACAD
1000
AcDbSavedByObjectVersion
1070
     0
  0
VISUALSTYLE
  5
1D
102
{ACAD_REACTORS
330
14
102
}
330
14
100
AcDbVisualStyle
  2
Conceptual
 70
     9
 71
     3
 72
     2
 73
     0
 90
        0
 40
-0.6
 41
-30.0
 62
     5
 63
     7
 74
     2
 91
        2
 64
     7
 65
   257
 75
     1
175
     1
 42
40.0
 92
        8
 66
     7
 43
1.0
 76
     1
 77
     6
 78
     2
 67
     7
 79
     3
170
     0
171
     0
290
     0
174
     0
 93
        1
 44
0.0
173
     0
291
     0
 45
0.0
1001
ACAD
1000
AcDbSavedByObjectVersion
1070
     0
  0
VISUALSTYLE
  5
1F
102
{ACAD_REACTORS
330
14
102
}
330
14
100
AcDbVisualStyle
  2
Dim
 70
    11
 71
     2
 72
     2
 73
     0
 90
        0
 40
-0.6
 41
-30.0
 62
     5
 63
     7
 74
     1
 91
        4
 64
     7
 65
   257
 75
     1
175
     1
 42
1.0
 92
        8
 66
     7
 43
1.0
 76
     1
 77
     6
 78
     2
 67
     7
 79
     5
170
     0
171
     0
290
     0
174
     0
 93
        1
 44
-50.0
173
     0
291
     1
 45
0.0
1001
ACAD
1000
AcDbSavedByObjectVersion
1070
     0
  0
VISUALSTYLE
  5
23
102
{ACAD_REACTORS
330
14
102
}
330
14
100
AcDbVisualStyle
  2
Facepattern
 70
    15
 71
     2
 72
     2
 73
     0
 90
        0
 40
-0.6
 41
-30.0
 62
     5
 63
     7
 74
     1
 91
        4
 64
     7
 65
   257
 75
     1
175
     1
 42
1.0
 92
        8
 66
     7
 43
1.0
 76
     1
 77
     6
 78
     2
 67
     7
 79
     5
170
     0
171
     0
290
     0
174
     0
 93
        1
 44
0.0
173
     0
291
     1
 45
0.0
1001
ACAD
1000
AcDbSavedByObjectVersion
1070
     0
  0
VISUALSTYLE
  5
15
102
{ACAD_REACTORS
330
14
102
}
330
14
100
AcDbVisualStyle
  2
Flat
 70
     0
 71
     2
 72
     1
 73
     1
 90
        2
 40
-0.6
 41
30.0
 62
     5
 63
     7
 74
     0
 91
        4
 64
     7
 65
   257
 75
     1
175
     1
 42
1.0
 92
        8
 66
     7
 43
1.0
 76
     1
 77
     6
 78
     2
 67
     7
 79
     5
170
     0
171
     0
290
     0
174
     0
 93
       13
 44
0.0
173
     0
291
     1
 45
0.0
1001
ACAD
1000
AcDbSavedByObjectVersion
1070
     0
  0
VISUALSTYLE
  5
16
102
{ACAD_REACTORS
330
14
102
}
330
14
100
AcDbVisualStyle
  2
FlatWithEdges
 70
     1
 71
     2
 72
     1
 73
     1
 90
        2
 40
-0.6
 41
30.0
 62
     5
 63
     7
 74
     1
 91
        4
 64
     7
 65
   257
 75
     1
175
     1
 42
1.0
 92
        0
 66
   257
 43
1.0
 76
     1
 77
     6
 78
     2
 67
     7
 79
     5
170
     0
171
     0
290
     0
174
     0
 93
       13
 44
0.0
173
     0
291
     1
 45
0.0
1001
ACAD
1000
AcDbSavedByObjectVersion
1070
     0
  0
VISUALSTYLE
  5
17
102
{ACAD_REACTORS
330
14
102
}
330
14
100
AcDbVisualStyle
  2
Gouraud
 70
     2
 71
     2
 72
     2
 73
     1
 90
        2
 40
-0.6
 41
30.0
 62
     5
 63
     7
 74
     0
 91
        4
 64
     7
 65
   257
 75
     1
175
     1
 42
1.0
 92
        0
 66
     7
 43
1.0
 76
     1
 77
     6
 78
     2
 67
     7
 79
     5
170
     0
171
     0
290
     0
174
     0
 93
       13
 44
0.0
173
     0
291
     1
 45
0.0
1001
ACAD
1000
AcDbSavedByObjectVersion
1070
     0
  0
VISUALSTYLE
  5
18
102
{ACAD_REACTORS
330
14
102
}
330
14
100
AcDbVisualStyle
  2
GouraudWithEdges
 70
     3
 71
     2
 72
     2
 73
     1
 90
        2
 40
-0.6
 41
30.0
 62
     5
 63
     7
 74
     1
 91
        4
 64
     7
 65
   257
 75
     1
175
     1
 42
1.0
 92
        0
 66
   257
 43
1.0
 76
     1
 77
     6
 78
     2
 67
     7
 79
     5
170
     0
171
     0
290
     0
174
     0
 93
       13
 44
0.0
173
     0
291
     1
 45
0.0
1001
ACAD
1000
AcDbSavedByObjectVersion
1070
     0
  0
VISUALSTYLE
  5
22
102
{ACAD_REACTORS
330
14
102
}
330
14
100
AcDbVisualStyle
  2
Linepattern
 70
    14
 71
     2
 72
     2
 73
     0
 90
        0
 40
-0.6
 41
-30.0
 62
     5
 63
     7
 74
     1
 91
        4
 64
     7
 65
   257
 75
     7
175
     7
 42
1.0
 92
        8
 66
     7
 43
1.0
 76
     1
 77
     6
 78
     2
 67
     7
 79
     5
170
     0
171
     0
290
     0
174
     0
 93
        1
 44
0.0
173
     0
291
     1
 45
0.0
1001
ACAD
1000
AcDbSavedByObjectVersion
1070
     0
  0
VISUALSTYLE
  5
1E
102
{ACAD_REACTORS
330
14
102
}
330
14
100
AcDbVisualStyle
  2
Realistic
 70
     8
 71
     2
 72
     2
 73
     0
 90
        0
 40
-0.6
 41
-30.0
 62
     5
 63
     7
 74
     1
 91
        0
 64
     7
 65
   257
 75
     1
175
     1
 42
1.0
 92
        8
 66
     8
 43
1.0
 76
     1
 77
     6
 78
     2
 67
     7
 79
     5
170
     0
171
     0
290
     0
174
     0
 93
       13
 44
0.0
173
     0
291
     0
 45
0.0
1001
ACAD
1000
AcDbSavedByObjectVersion
1070
     0
  0
VISUALSTYLE
  5
21
102
{ACAD_REACTORS
330
14
102
}
330
14
100
AcDbVisualStyle
  2
Thicken
 70
    13
 71
     2
 72
     2
 73
     0
 90
        0
 40
-0.6
 41
-30.0
 62
     5
 63
     7
 74
     1
 91
        4
 64
     7
 65
   257
 75
     1
175
     1
 42
1.0
 92
       12
 66
     7
 43
1.0
 76
     1
 77
     6
 78
     2
 67
     7
 79
     5
170
     0
171
     0
290
     0
174
     0
 93
        1
 44
0.0
173
     0
291
     1
 45
0.0
1001
ACAD
1000
AcDbSavedByObjectVersion
1070
     0
  0
DICTIONARYVAR
  5
8F8
102
{ACAD_REACTORS
330
8F7
102
}
330
8F7
100
DictionaryVariables
280
     0
  1
STANDARD
  0
DICTIONARYVAR
  5
8FC
102
{ACAD_REACTORS
330
8F7
102
}
330
8F7
100
DictionaryVariables
280
     0
  1
1
  0
DICTIONARYVAR
  5
8FB
102
{ACAD_REACTORS
330
8F7
102
}
330
8F7
100
DictionaryVariables
280
     0
  1
1
  0
DICTIONARYVAR
  5
8FA
102
{ACAD_REACTORS
330
8F7
102
}
330
8F7
100
DictionaryVariables
280
     0
  1
0
  0
DICTIONARYVAR
  5
8F9
102
{ACAD_REACTORS
330
8F7
102
}
330
8F7
100
DictionaryVariables
280
     0
  1
127
  0
DICTIONARY
  5
906
330
36
100
AcDbDictionary
280
     1
281
     1
  3
ACAD_XREC_ROUNDTRIP
360
907
  0
DICTIONARY
  5
90A
330
3E
100
AcDbDictionary
280
     1
281
     1
  3
ACAD_XREC_ROUNDTRIP
360
90B
  0
DICTIONARY
  5
908
330
3A
100
AcDbDictionary
280
     1
281
     1
  3
ACAD_XREC_ROUNDTRIP
360
909
  0
DICTIONARY
  5
900
330
12
100
AcDbDictionary
280
     1
281
     1
  3
ACAD_XREC_ROUNDTRIP
360
901
  0
DICTIONARY
  5
8FE
330
11
100
AcDbDictionary
280
     1
281
     1
  3
ACAD_XREC_ROUNDTRIP
360
8FF
  0
DICTIONARY
  5
902
330
13
100
AcDbDictionary
280
     1
281
     1
  3
ACAD_XREC_ROUNDTRIP
360
903
  0
DICTIONARY
  5
904
330
32
100
AcDbDictionary
280
     1
281
     1
  3
ACAD_XREC_ROUNDTRIP
360
905
  0
XRECORD
  5
907
102
{ACAD_REACTORS
330
906
102
}
330
906
100
AcDbXrecord
280
     1
102
SHADEPLOT
 70
     0
102
SHADEPLOTRESLEVEL
 70
     2
102
SHADEPLOTCUSTOMDPI
 70
   300
  0
XRECORD
  5
90B
102
{ACAD_REACTORS
330
90A
102
}
330
90A
100
AcDbXrecord
280
     1
102
SHADEPLOT
 70
     0
102
SHADEPLOTRESLEVEL
 70
     2
102
SHADEPLOTCUSTOMDPI
 70
   300
  0
XRECORD
  5
909
102
{ACAD_REACTORS
330
908
102
}
330
908
100
AcDbXrecord
280
     1
102
SHADEPLOT
 70
     0
102
SHADEPLOTRESLEVEL
 70
     2
102
SHADEPLOTCUSTOMDPI
 70
   300
  0
XRECORD
  5
901
102
{ACAD_REACTORS
330
900
102
}
330
900
100
AcDbXrecord
280
     1
102
MATERIAL
148
0.0
149
0.0
149
0.0
 93
        0
 94
       63
282
     0
 72
     1
 77
     1
171
     1
175
     1
179
     1
273
     0
  0
XRECORD
  5
8FF
102
{ACAD_REACTORS
330
8FE
102
}
330
8FE
100
AcDbXrecord
280
     1
102
MATERIAL
148
0.0
149
0.0
149
0.0
 93
        0
 94
       63
282
     0
 72
     1
 77
     1
171
     1
175
     1
179
     1
273
     0
  0
XRECORD
  5
903
102
{ACAD_REACTORS
330
902
102
}
330
902
100
AcDbXrecord
280
     1
102
MATERIAL
148
0.0
149
0.0
149
0.0
 93
        0
 94
       63
282
     0
 72
     1
 77
     1
171
     1
175
     1
179
     1
273
     0
  0
XRECORD
  5
905
102
{ACAD_REACTORS
330
904
102
}
330
904
100
AcDbXrecord
280
     1
102
ACAD_ROUNDTRIP_PRE2007_TABLESTYLE
 90
      512
 91
        0
  1

 92
      512
 93
        0
  2

 94
      512
 95
        0
  3

  0
ENDSEC
  0
EOF
